<?xml version="1.0" standalone="no"?>
<!DOCTYPE svg PUBLIC "-//W3C//DTD SVG 1.1//EN" "http://www.w3.org/Graphics/SVG/1.1/DTD/svg11.dtd" >
<svg xmlns="http://www.w3.org/2000/svg">
<metadata></metadata>
<defs>
<font id="etbemboromanosf" horiz-adv-x="1093" >
<font-face units-per-em="2048" ascent="1638" descent="-410" />
<missing-glyph horiz-adv-x="501" />
<glyph horiz-adv-x="2048" />
<glyph horiz-adv-x="2048" />
<glyph unicode="&#xd;" horiz-adv-x="681" />
<glyph unicode=" "  horiz-adv-x="501" />
<glyph unicode="&#x09;" horiz-adv-x="501" />
<glyph unicode="&#xa0;" horiz-adv-x="501" />
<glyph unicode="!" horiz-adv-x="557" d="M168 78q0 49 31.5 78.5t81 29.5t82 -29.5t32.5 -78.5q0 -47 -32.5 -78t-82 -31t-81 31t-31.5 78zM173 1367q-1 19 15.5 32.5t49.5 13.5l67 -2q59 -2 72.5 -17.5t9.5 -68.5l-78 -950q-6 -14 -26.5 -16.5t-30.5 16.5l-78 950q0 23 -1 42z" />
<glyph unicode="&#x22;" horiz-adv-x="870" d="M135 1241q0 139 111 139q53 0 84.5 -35t31.5 -94q0 -31 -8 -92q-4 -31 -16 -92l-59 -315q-10 -14 -33 -13q-12 0 -23.5 10.5t-13.5 26.5l-51 293q-23 127 -23 172zM510 1229q0 152 117 151q53 0 84.5 -35t31.5 -94q0 -70 -22 -186l-59 -313q-6 -16 -23 -19 q-14 -4 -30.5 3t-16.5 16l-55 311q-27 143 -27 166z" />
<glyph unicode="#" horiz-adv-x="1431" d="M94 408q-6 31 0 63q0 33 45 33h154q25 0 34 6t13 31l66 315q4 31 -25 33h-68.5h-96.5h-71q-31 0 -42 7t-9 26q-4 27 4 75q0 23 43 25q145 4 269 0q20 -2 26 3t10 26l76 364q4 16 7 25.5t11.5 12.5t13.5 2t24.5 -3t31.5 -4q35 -2 39 -8t-2 -37l-69 -348q-4 -12 3 -22.5 t21 -10.5q45 4 186.5 1t184.5 -1q23 2 29 8t10 29q53 264 67 330q0 4 2 14t3 13t4.5 10.5t5.5 9.5t7 6t12 6t15 2l50 4q25 2 33 -14.5t1 -38.5l-71 -346q-6 -33 24 -33q55 -6 138 0h11h10h8t7 -2t5.5 -5t3.5 -9.5v-14.5q2 -8 -5 -76q0 -27 -47 -26h-44.5h-61.5h-45 q-8 0 -14.5 -1t-10.5 -2t-8 -5t-6 -6.5t-4 -10.5t-3 -10t-3 -12.5t-2 -14.5l-60 -286q-8 -37 31 -37q98 -4 225 0q16 0 29.5 1t21 -7.5t7.5 -28.5l-5 -61q0 -10 -3 -16.5t-5 -10.5t-10 -6t-11 -2t-14.5 -1t-13.5 -1q-121 -4 -231 0q-31 0 -40 -4.5t-12.5 -20.5t-11.5 -27 l-67 -331q-4 -27 -13.5 -37t-33.5 -10h-60q-37 0 -26 53l67 323q8 27 2 39.5t-31 14.5q-190 8 -342 0q-37 -2 -45 -7.5t-16 -39.5l-68 -334q-2 -12 -7 -21.5t-8 -14.5t-12 -7l-13.5 -3t-19.5 -1h-22l-32 -2q-10 0 -15.5 3t-6.5 11t0 14t4 17.5t3 15.5l68 328q6 25 1 33 t-32 8h-129q-20 0 -26.5 1t-11.5 9t-5 27zM467 526.5q2 -6.5 4 -7.5t7 -5t7 -8q193 8 365 0q47 0 55 37l62 297q6 33 1 41t-28 8q-199 4 -354 0q-37 -2 -43 -12q-4 -8 -8 -27l-66 -309q-4 -8 -2 -14.5z" />
<glyph unicode="$" horiz-adv-x="980" d="M74 213q0 33 23.5 57.5t56.5 24.5q53 0 88 -88q4 -12 11 -32.5t10 -28t10.5 -21.5t18.5 -24.5t27 -22.5q16 0 17 28v502q-6 14 -14 21q-121 92 -156 135q-57 72 -57 168q0 92 60 165.5t159 106.5q8 0 8 19v110q4 10 18 13l23 2q16 -4 24 -19v-86q2 -2 4.5 -7t5.5 -8 t11 -3q51 4 100 0q4 -2 9.5 7t5.5 15v82q2 10 24 17h25q18 0 18 -23l-2 -96q0 -12 10 -23q102 -31 164 -80t62 -104q0 -33 -20.5 -54.5t-51.5 -21.5q-49 0 -94 68q-31 47 -54 71l-16 -8v-373q6 -37 12 -43q84 -53 134.5 -92t95.5 -109.5t45 -152.5q0 -115 -75 -202 t-202 -123q-10 0 -10 -19q0 -104 2 -162q0 -18 -22 -18h-31q-20 4 -16 24l2 140q0 20 -19 20q-43 -6 -96 2q-4 0 -11.5 -5t-7.5 -15l3 -131q0 -4 1 -10.5t1 -9.5t-3.5 -8t-9.5 -7h-51q-12 4 -8 22v9v153q-2 16 -12 21q-135 43 -189 98q-61 66 -61 129zM244 1004 q0 -78 75 -144q10 -8 17 14v5v241q2 2 0 9.5t-8 5.5q-84 -45 -84 -131zM401 51q4 -18 13 -18q63 -14 112 -4q11 0 11 20v418q0 10 -7.5 23.5t-11.5 15.5l-61 39q-20 12 -39 24q-8 4 -12.5 -3t-4.5 -25v-490zM401 819q0 -20 9 -28q12 -10 110 -74q17 8 17 20v391q0 20 -11 21 q-63 18 -110 10q-14 -2 -15 -29v-311zM602 76q0 -6 4 -10.5t7 -5.5t5 1q121 66 121 197q0 100 -98 166l-25 16q-6 4 -11 -4t-3 -16v-344z" />
<glyph unicode="%" horiz-adv-x="1425" d="M90 938q0 131 84 216t205 85q123 0 209 -83t84 -212q-2 -131 -85 -216t-206 -85q-119 0 -205 85t-86 210zM207 942q0 -111 47 -171t127 -60q82 0 129 61.5t47 172t-48 170t-134 59.5q-78 0 -123 -61.5t-45 -170.5zM258 -98l801 1390q18 25 45 15l24 -11q19 -5 7 -34 l-797 -1383q-6 -12 -12 -16q-4 -2 -41 -2q-49 0 -27 41zM731 209q0 131 84 216t205 85q123 0 209 -83t84 -212q-2 -131 -85 -216t-206 -85q-119 0 -205 84t-86 211zM848 213q0 -111 47 -171t127 -60q82 0 129 61t47 172t-48 170t-134 59q-78 0 -123 -61t-45 -170z" />
<glyph unicode="&#x26;" horiz-adv-x="1562" d="M86 328q0 162 121 266q53 47 207 119q35 23 24 30q-131 125 -131 263q0 117 83 188.5t218 71.5q123 0 204 -61.5t81 -157.5q0 -147 -211 -265q-6 -4 -5 -12t5 -12q68 -51 162 -142q88 -86 157 -188q8 -14 27 10q78 98 133 187q47 72 75 134t28 83q0 14 -22.5 20t-57.5 9 t-37 3q-8 4 -10 20.5t2 25.5q2 12 24 12q135 -6 359 2q20 4 24 -16v-27q0 -16 -28 -21q-10 -2 -40 -4t-45.5 -4t-37 -10t-35.5 -21q-29 -29 -80 -122q-14 -29 -34.5 -68t-22.5 -45q-63 -117 -164 -229q-10 -10 -2 -23q37 -61 71 -123q55 -100 87 -132t75 -32q53 0 166 78 q14 4 28.5 -22.5t0.5 -32.5q-147 -119 -273 -119q-86 0 -136 39t-109 147q-10 20 -27 50q-12 23 -31 4q-240 -240 -465 -240q-152 0 -255 105.5t-103 261.5zM285 352q0 -117 67.5 -188.5t177.5 -71.5q84 0 183.5 49t169.5 125q10 10 0 27q-72 111 -174 217 q-113 113 -193 166q-14 10 -41 -8q-190 -143 -190 -316zM467 1059q0 -131 145 -246q127 80 127 217q0 78 -40 123t-105 45q-59 0 -93 -37t-34 -102z" />
<glyph unicode="'" horiz-adv-x="378" d="M78 1231q0 150 110 149q53 0 85 -35t32 -94q0 -39 -10 -94q-12 -66 -16 -90l-50 -281q-4 -20 -13 -32.5t-28 -10.5q-23 2 -27.5 6.5t-6.5 20.5q-2 8 -2 12l-50 285q-25 127 -24 164z" />
<glyph unicode="(" horiz-adv-x="667" d="M162 492q0 256 105.5 505.5t287.5 446.5q31 23 61.5 -7t12.5 -61q-143 -160 -244 -422q-78 -205 -78 -462q0 -201 43 -359t146 -338q61 -104 133 -190q16 -33 -49 -64q-20 -10 -43 17q-172 190 -273.5 438t-101.5 496z" />
<glyph unicode=")" horiz-adv-x="647" d="M25 -391q147 164 245 422q78 205 78 465q0 199 -43 356.5t-147 339.5q-57 102 -119 174q-12 12 -11 32.5t17 35.5q37 31 70 -2q176 -193 275 -437.5t99 -498.5q0 -260 -104 -511t-287 -444q-33 -25 -65.5 3t-7.5 65z" />
<glyph unicode="*" d="M158 727q0 49 23.5 68.5t80.5 31.5q4 2 46 11.5t67 17.5q57 16 119 53q25 14 4 25q-66 35 -123 51q-20 6 -41 11t-42.5 10.5t-31.5 7.5q-55 16 -78.5 35.5t-23.5 66.5q0 23 19.5 49.5t66.5 26.5q10 0 18 -2t17.5 -8t15.5 -10.5t15 -13.5t13.5 -13t13.5 -15.5t11 -13.5 q74 -88 164 -143q23 -12 23 14q-4 96 -29 180q-29 96 -29 125q0 35 21.5 61.5t58.5 26.5t58.5 -26.5t21.5 -61.5q0 -37 -27 -125q-27 -92 -28 -180q0 -25 26 -12q92 59 158 141q66 76 106 76q47 0 65.5 -25.5t18.5 -50.5q0 -68 -79 -96q-25 -8 -72 -18.5t-64 -16.5 q-47 -14 -120 -49q-12 -6 -14.5 -9t-0.5 -6t17 -12q76 -41 116 -53q16 -6 65.5 -15.5t74.5 -17.5q77 -26 77 -96q0 -27 -21.5 -50.5t-53.5 -23.5q-39 0 -63.5 19.5t-53.5 58.5q-72 90 -160 143q-20 10 -20 -8q2 -123 28 -202q14 -35 19 -54q8 -18 8 -57t-22.5 -65.5 t-59.5 -26.5t-59.5 26.5t-22.5 65.5q0 29 8 57q12 33 21 54q27 80 28 198q0 25 -20 12q-84 -49 -160 -143q-23 -29 -33 -40t-33.5 -24.5t-52.5 -13.5q-33 0 -54 23.5t-21 50.5z" />
<glyph unicode="+" horiz-adv-x="1429" d="M145 662v55v13v11t1 7.5t3.5 6.5t6.5 3t10 2h14h438q20 0 25.5 5t5.5 23v408q0 6 -1 14.5t-1 12.5q0 47 29 47h80q18 0 23 -7.5t5 -37.5v-445q-4 -20 21 -20h442q27 0 35 -7.5t8 -27.5v-63q0 -27 -9 -32t-40 -5h-426h-12h-9t-5.5 -2t-4.5 -7.5v-13.5v-442q0 -31 -6 -36 t-37 -5q-29 -8 -61 0q-8 0 -13 1t-9.5 3t-5.5 3t-2 6t-1 7v9.5v11.5v438q0 27 -28 27h-433q-27 0 -35 6t-8 31z" />
<glyph unicode="," horiz-adv-x="514" d="M143 63q0 45 33 75t78 30q61 0 98 -44t37 -116q0 -88 -52 -168t-136 -119q-29 -14 -41 -2q-2 2 -5 7.5t-5 7.5q-10 31 6 35q137 82 137 178q0 20 -8 22q-6 4 -27 -2q-47 -10 -81 18.5t-34 77.5z" />
<glyph unicode="-" horiz-adv-x="890" d="M90 432v82q0 16 13.5 25.5t25.5 9.5q68 -2 303.5 1t349.5 -1q10 0 19.5 -11.5t9.5 -21.5l-4 -80q-6 -25 -35 -28q-158 4 -357.5 1t-303.5 -1q-14 0 -21 24z" />
<glyph unicode="." horiz-adv-x="417" d="M133 80q0 53 35 86t90 33q53 0 86 -32t33 -85q0 -51 -33 -85t-86 -34t-89 33t-36 84z" />
<glyph unicode="/" horiz-adv-x="980" d="M76 -14.5q0 10.5 6 24.5q119 225 348 670.5t346 673.5q20 33 35 32l102 -4q8 0 14.5 -7t5.5 -20.5t-11 -27.5l-691 -1331q-20 -41 -45 -39h-15h-21.5t-24.5 1t-23.5 4t-17.5 8t-8 15.5z" />
<glyph unicode="0" horiz-adv-x="1001" d="M82 440q0 215 121 353.5t309 138.5q190 0 311 -136.5t121 -349.5q0 -209 -121 -342t-313 -133q-186 0 -307 133.5t-121 335.5zM227 452.5q0 -178.5 76 -279.5t207 -101q135 0 213 100.5t78 278.5q0 184 -77 284.5t-216 100.5q-129 0 -205 -102.5t-76 -281z" />
<glyph unicode="1" horiz-adv-x="790" d="M111 641q18 12 45.5 29.5t42.5 27.5q143 100 221 207q10 8 47 8t41 -16v-721q0 -70 16 -84q10 -6 35 -10q6 -2 57 -6h33t33 -2q18 -4 18 -43t-20 -39q-365 4 -504 0q-12 -2 -17 15.5t-2 38t13 26.5q18 8 37 4q51 0 59 2q29 0 45 8q43 20 43 84v475q-2 4 -2 16.5t-2 18.5 q-2 18 -12 12q-31 -23 -82 -49q-23 -12 -60.5 -29.5t-56.5 -25.5q-14 -8 -26.5 18.5t-1.5 34.5z" />
<glyph unicode="2" horiz-adv-x="1001" d="M66 19.5q0 21.5 8 29.5q229 158 375 287q174 154 174 276q0 88 -56.5 143.5t-144.5 55.5q-115 0 -238 -113q-8 -8 -31.5 3.5t-13.5 33.5q94 106 177 151.5t186 45.5q117 0 199.5 -69.5t82.5 -170.5q0 -76 -42 -152.5t-122.5 -151.5t-136 -119t-143.5 -105q-6 -6 0 -14 q4 -8 18 -9q281 0 336 2q41 2 56.5 10.5t31.5 36.5q31 55 60 129q12 12 35 9q10 -2 17 -7.5t5 -13.5l-70 -287q-6 -29 -55 -28h-18h-678q-12 6 -12 27.5z" />
<glyph unicode="3" horiz-adv-x="892" d="M123 -252q0 47 41 66.5t78 -2.5q6 -4 17 -13.5t17 -13.5q82 -61 136 -61q57 0 97 67.5t40 175.5q0 178 -84 250q-66 59 -176 29q-20 -6 -26.5 20.5t5.5 32.5q256 158 256 340q0 76 -36.5 120t-100.5 44q-96 0 -194 -113q-8 -6 -18.5 -4t-19 14.5t-3.5 26.5 q51 100 127.5 155.5t166.5 55.5q100 0 166 -71.5t66 -178.5q0 -156 -164 -278q-8 -4 -11 -11.5t7 -11.5q45 -6 84 -37q111 -94 111 -274q0 -188 -112 -314.5t-280 -126.5q-190 0 -190 113z" />
<glyph unicode="4" horiz-adv-x="1001" d="M54.5 21.5q-3.5 19.5 4.5 33.5l572 865q16 20 43 16q20 -8 20 -21v-759q4 -25 29 -35l168 4q4 0 16.5 -1t18.5 -5t8 -16t2 -78q0 -10 -14.5 -19.5t-20.5 -7.5l-178 2q-6 0 -17.5 -9t-11.5 -18q6 -133 0 -299q0 -39 -32 -39h-105q-10 -2 -19.5 11.5t-9.5 23.5 q-8 188 -2 291q-6 41 -20 39q-176 -10 -440 0q-8 2 -11.5 21.5zM208 131.5q3 -10.5 13 -10.5q125 -4 268 0h11q14 2 24 14q2 4 4 6q-6 324 0 449q6 16 -6 28q-4 4 -8 -2l-303 -464q-6 -10 -3 -20.5z" />
<glyph unicode="5" horiz-adv-x="919" d="M111 -279q0 33 21.5 56.5t51.5 23.5q23 0 54 -12q117 -41 151 -41q86 0 150.5 80t64.5 190q0 78 -38 154t-107.5 140.5t-129 108.5t-141.5 95q-18 12 0 41q150 207 291 361q12 14 29 12l233 -27q39 -4 35 -35q-4 -18 -29.5 -55t-37.5 -49q-14 -14 -35 -14l-193 24 q-25 2 -37 -14l-79 -98q-23 -29 -19 -37t21 -19q98 -61 192 -149q186 -176 186 -373q0 -213 -206 -346q-156 -100 -320 -100q-49 0 -78.5 22.5t-29.5 60.5z" />
<glyph unicode="6" horiz-adv-x="1028" d="M98 451q0 154 66.5 290t179.5 234t240 167.5t270 114.5q37 10 54.5 -5t-3.5 -44q-176 -78 -292.5 -165t-215.5 -226q-6 -10 0 -16t15 -4q41 10 55 10q16 2 55 2q178 0 291 -113t113 -293q0 -184 -116 -308t-288 -124q-182 0 -303 136.5t-121 343.5zM276 403 q0 -174 65 -273t175 -99q88 0 148 59q86 86 86 281q0 184 -67 283.5t-187 99.5q-61 0 -152 -41q-41 -100 -54.5 -162t-13.5 -148z" />
<glyph unicode="7" horiz-adv-x="1001" d="M86 561l41 309q14 35 63 35q332 12 662 0q37 0 45 -16v-33q-293 -762 -504 -1194q-10 -27 -31 -24l-63 2q-14 2 -23.5 13t-3.5 25l471 1059q4 10 -11 14.5t-30 4.5q-90 -6 -423 0q-43 2 -68 -18.5t-41 -88.5l-27 -102q-4 -6 -18 -6t-26.5 5t-12.5 15z" />
<glyph unicode="8" horiz-adv-x="950" d="M145 285q0 106 54.5 176.5t158.5 136.5q27 14 9 31q-186 141 -187 329q0 131 90 215t232 84q135 0 223 -79.5t88 -204.5q0 -88 -43 -153.5t-147 -133.5q-16 -12 -2 -22q125 -102 174 -182.5t49 -182.5q0 -141 -101.5 -234.5t-253.5 -93.5q-147 0 -245.5 88t-98.5 226z M281 289q0 -119 61 -187.5t162 -68.5q86 0 143.5 54t57.5 136q0 94 -60.5 173t-210.5 182q-86 -53 -119.5 -117t-33.5 -172zM307 1030q0 -147 248 -319q59 33 84 69q47 78 47 176q0 113 -53 179.5t-141 66.5q-82 0 -133.5 -48t-51.5 -124z" />
<glyph unicode="9" horiz-adv-x="1044" d="M98 502q0 184 116 308t290 124q186 0 304 -138.5t118 -349.5q0 -172 -61.5 -311t-172 -234.5t-243 -159t-293.5 -101.5q-20 -4 -33.5 9t-13.5 31.5t16 24.5q393 141 526 373q20 47 -18 37q-82 -20 -137 -21q-168 0 -283 118t-115 290zM276 532q0 -182 67 -282t185 -100 q72 0 148 36q29 14 41 54q33 127 33 266q0 174 -64.5 274.5t-173.5 100.5q-80 0 -139 -50q-96 -76 -97 -299z" />
<glyph unicode=":" horiz-adv-x="526" d="M156 84q0 45 30.5 73.5t77.5 28.5t78 -28.5t31 -73.5t-31 -74.5t-78 -29.5t-77.5 29.5t-30.5 74.5zM156 717q0 47 30.5 75.5t77.5 28.5t78 -28.5t31 -75.5q0 -45 -31 -74t-78 -29t-77.5 29t-30.5 74z" />
<glyph unicode=";" horiz-adv-x="471" d="M129 74q0 45 34 75.5t81 30.5q63 0 105 -47t42 -121q0 -96 -64.5 -182t-164.5 -125q-16 -6 -27.5 20.5t6.5 34.5q145 88 146 191q0 29 -15 29q-8 0 -24.5 -3.5t-24.5 -3.5q-39 0 -66.5 30t-27.5 71zM131 713q0 45 31 74.5t78 29.5t78.5 -28.5t31.5 -75.5q0 -45 -31.5 -74 t-78.5 -29t-78 29t-31 74z" />
<glyph unicode="&#x3c;" horiz-adv-x="1429" d="M143 672q-6 18 0 51q0 29 25 39q707 313 1069 455q35 14 44 -4.5t9 -59.5v-33q0 -27 -45 -47q-705 -299 -866 -362q-41 -16 4 -35q418 -184 879 -367q29 -12 28 -47v-45q0 -66 -63 -43q-344 127 -1061 455q-23 10 -23 43z" />
<glyph unicode="=" horiz-adv-x="1429" d="M139 428v49q0 49 58 49q174 -4 1056 -4q39 0 39 -37l-2 -55q-2 -29 -10 -37t-43 -8h-1042q-31 0 -43.5 8t-12.5 35zM145 983q6 25 43 25q33 0 466 1t585 5q31 0 41 -18.5t10 -47.5q0 -4 1 -17.5t1 -21.5q0 -14 -1 -21t-9 -11.5t-14 -4.5h-29h-1034q-47 -6 -58 39z" />
<glyph unicode="&#x3e;" horiz-adv-x="1429" d="M141 262q0 35 29 47q553 221 866 361q18 8 26.5 19t-9.5 22q-324 139 -867 362q-37 14 -41 25q-2 8 -2 26v37q0 41 13.5 53.5t38.5 2.5q481 -199 1058 -451q35 -16 35 -43q6 -33 2 -51q0 -18 -7 -27.5t-36 -23.5q-387 -174 -1042 -447q-61 -27 -62 43q0 8 -1 23.5 t-1 21.5z" />
<glyph unicode="?" horiz-adv-x="741" d="M86 1260q0 113 197 112q168 0 273.5 -110.5t105.5 -284.5q0 -203 -148 -303q-59 -41 -147 -74q-86 -29 -86 -86q0 -53 88 -158q2 -4 -2.5 -11t-10.5 -9q-12 -4 -32.5 1t-28.5 15q-109 129 -109 230q0 74 38 117.5t128 78.5q135 49 183.5 99.5t48.5 132.5t-53.5 127 t-151.5 45q-31 0 -82 -7.5t-78 -7.5q-133 0 -133 93zM197 78q0 49 34.5 80.5t85.5 31.5q53 0 87 -30.5t34 -81.5q0 -49 -33.5 -81t-87.5 -32q-51 0 -85.5 32t-34.5 81z" />
<glyph unicode="@" horiz-adv-x="1966" d="M246 565q0 362 238.5 612t584.5 250q281 0 460 -168.5t179 -439.5q0 -254 -148.5 -439t-349.5 -185q-141 0 -141 133q0 39 2 63q4 20 -10 8q-6 -8 -10 -14q-29 -35 -90 -92q-109 -98 -207 -98q-72 0 -118 62t-46 153q0 113 60.5 242.5t158.5 232.5q139 143 264 143 q94 0 135 -72q12 -20 25 13q0 4 2 11t3 10t2 8.5t3 7.5t4 5t4 5t6.5 4t8.5 3t10 2t12 1q18 2 86 2q20 0 21 -22q0 -2 -56.5 -181.5t-88 -297t-36.5 -169.5q-4 -80 56 -79q45 0 102.5 34.5t102.5 87.5q72 88 115.5 203t43.5 230q0 229 -158.5 377.5t-398.5 148.5 q-305 0 -518 -236.5t-213 -580.5q0 -301 185.5 -487.5t478.5 -186.5q231 0 406 115.5t274 339.5q8 18 14 22t25 4q4 0 10 -1t10 -1q16 -4 10 -29q-84 -244 -287.5 -384t-465.5 -140q-328 0 -544 217t-216 553zM745 436q0 -49 26 -81.5t63 -32.5q98 0 221 163q53 72 86 170 q39 123 39 193q0 53 -28 86t-71 33q-68 0 -135 -78q-80 -96 -140.5 -231.5t-60.5 -221.5z" />
<glyph unicode="A" horiz-adv-x="1456" d="M29 55q2 12 18 13q92 0 119 30q14 16 41 78q25 61 33 84l385 1047l-15 53q-2 4 1 7t9.5 5t13.5 3t16 1h15.5h14.5h6q92 0 107 -20q106 -281 191 -505t132 -349t60 -160q20 -53 57 -160q27 -74 54.5 -97.5t94.5 -23.5h15q12 0 17 -17q2 -8 2 -17t-2 -17q-5 -18 -17 -18 q-131 6 -286 6q-124 0 -263 -4q-16 0 -23 16q-2 6 -2 25q0 20 8.5 26.5t28.5 6.5h94q63 2 80 28q7 11 7 27q0 22 -13 55q-25 66 -70 187.5t-69 187.5q-4 12 -23.5 20.5t-34.5 6.5q-53 -3 -131 -3t-182 3q-23 0 -49 -35q-53 -174 -131 -355q-16 -39 -16 -69q0 -53 116 -55 q14 0 36 2t40 0q14 -2 14 -39q-4 -35 -14 -35q-171 3 -282 3t-162 -3h-23q-22 4 -22 33q0 12 4 28zM535 727q-1 -2 -1 -4q0 -15 25 -27q64 -2 126.5 -2t121.5 2q10 0 15 10q3 6 3 12q0 5 -2 9q-68 188 -125 373q-4 10 -13 13q-2 1 -4 1q-6 0 -9 -8q-39 -127 -137 -379z" />
<glyph unicode="B" horiz-adv-x="1343" d="M43 27.5q0 33.5 14 38.5q39 6 49 2q133 0 164 31.5t31 172.5v783q0 150 -26.5 179.5t-151.5 29.5h-47q-16 0 -14.5 33.5t14.5 35.5l18 2q154 16 584 17q127 0 184.5 -11.5t134.5 -46.5q82 -39 130.5 -109.5t48.5 -154.5q0 -88 -53.5 -157.5t-143.5 -102.5q-16 -6 4 -16 l41 -21q231 -112 231 -325q0 -141 -90 -255t-223 -141q-109 -21 -228 -21q-24 0 -48 1q-162 3 -314 3t-293 -3q-16 2 -16 35.5zM500 360q0 -109 10 -163q23 -121 223 -121q133 0 218 92t85 227q0 86 -42 160t-115 117q-31 18 -63 29.5t-70 14.5q-36 3 -60 4h-30h-42 q-48 -1 -69 -1q-45 -8 -45 -43v-316zM500 829q0 -14 6 -24t11 -13.5t7 -3.5q14 0 62 -2h42h30q26 1 66 4t71.5 10t58.5 19q109 45 109 199q0 131 -91 209q-66 53 -165 63q-41 4 -79 4q-53 0 -100 -8q-8 -2 -18 -14t-10 -25v-418z" />
<glyph unicode="C" horiz-adv-x="1560" d="M115 649q0 315 208.5 514t544.5 199q147 0 336 -70q39 -15 65 -15q22 0 36 11q8 6 27.5 6t21.5 -8q21 -87 21 -157q0 -14 -1 -27q0 -18 -2 -60q-1 -21 -1 -37.5t1 -27.5q-4 -18 -28.5 -23.5t-32.5 7.5q-53 154 -163 239.5t-267 85.5q-248 0 -393.5 -161.5t-145.5 -432.5 q0 -279 160 -463t407 -184q182 0 334 135q41 37 62.5 65.5t60.5 98.5q4 18 43 14q25 -4 23 -16q-49 -170 -144 -328q-27 6 -47 6q-61 0 -160 -30q-88 -29 -235 -29q-324 0 -527.5 194.5t-203.5 493.5z" />
<glyph unicode="D" horiz-adv-x="1583" d="M25 1296q2 30 16 33l14 4q406 16 602 17q201 0 332 -34t240 -112q248 -178 248 -495q0 -231 -140.5 -420t-363.5 -252q-150 -43 -404 -43l-491 -2q-39 0 -45 18q-7 17 -7 29q0 22 23 31q14 2 41 3t35 1q18 2 32.5 6t26 9t19.5 16.5t13 17.5t9 22.5t6 22.5t3.5 26.5 t1.5 25.5v27.5v26.5v781q0 137 -26 174t-151 37h-18q-16 0 -16 25v5zM434 209q0 -80 32 -114t128 -34q305 0 483 151t178 464q0 152 -56 279.5t-155 203.5q-68 53 -138 78t-191 37q-68 6 -143 6q-45 0 -93 -2q-45 -4 -45 -47v-1022z" />
<glyph unicode="E" horiz-adv-x="1267" d="M50 45q5 23 19.5 25t88.5 2q100 4 125.5 37.5t25.5 164.5v779q0 131 -25.5 169t-133.5 38h-9.5h-9.5h-9t-8 1t-7.5 3t-8.5 6t-6 8q-6 12 8 43q6 10 35 10q335 2 563.5 2t350.5 -2q39 0 38 -20q8 -66 11.5 -121t4.5 -99t3 -61q-4 -20 -49 -6q-14 2 -15 23 q-20 125 -57 156.5t-164 33.5q-118 4 -193 4q-50 0 -81 -2q-12 0 -25.5 -16.5t-13.5 -28.5v-414q0 -16 9 -29.5t20 -13.5h241q121 0 147.5 20.5t41.5 131.5q4 14 45 10q10 -2 16 -31q2 -40 2 -106q0 -99 -4 -258q0 -27 -25 -29q-35 -4 -36 10q-16 106 -44 128t-149 24 l-235 2q-29 -8 -29 -33v-344q0 -119 21.5 -142.5t132.5 -23.5h163q115 0 155 9.5t67 39.5q49 59 75 166q4 18 21 23q37 4 43 -8q0 -66 -6 -124.5t-13.5 -112.5t-9.5 -64q-4 -29 -82 -29q-729 0 -999 -2q-20 4 -25 14q-3 8 -3 18q0 9 2 19z" />
<glyph unicode="F" horiz-adv-x="1112" d="M82 26q2 32 18 35q88 4 117 32t29 110v921q0 82 -32 111t-116 33q-4 2 -8 9t-4 16.5t1 18.5t6 15q4 4 9 5q2 0 4 -1h883q12 0 23.5 -12.5t9.5 -22.5l-6 -225q-12 -7 -27 -7t-35 7q-4 104 -43 133t-182 29h-248q-27 0 -35 -33l-2 -401q0 -12 10.5 -23.5t18.5 -13.5 q39 -2 83 -2t97.5 1t81.5 1q115 2 145.5 18.5t39.5 89.5q2 20 26 25q31 4 33 -16v-367q-4 -12 -29.5 -12t-27.5 12q-10 100 -43 126q-31 24 -135 24h-17q-58 -2 -117 -2t-118 2q-45 -4 -46 -41v-418q0 -82 32 -111t122 -29h21q16 -4 16 -36q0 -15 -4 -25q-3 -9 -10 -8h-2 q-171 2 -300 2t-217 -2q-23 0 -23 26q1 3 1 6z" />
<glyph unicode="G" horiz-adv-x="1562" d="M117 639q0 152 61.5 293t171.5 244q106 100 222 145t276 45q131 0 338 -61q45 -12 63 -13q25 0 41 17q16 4 47 0q7 -2 7 -90.5t-7 -264.5q-2 -18 -32.5 -19t-32.5 15q-68 342 -391 342q-254 0 -397.5 -171t-143.5 -468q0 -274 141.5 -444t374.5 -170q125 0 266 63 q25 10 25 68q0 14 -1 60t-1 85t2 62q0 82 -33 107.5t-125 29.5l-80 2q-10 0 -16 17.5t-2 35t18 19.5q101 -3 243 -3t323 3q22 0 22 -21q0 -6 -2 -14q-2 -12 -8 -23.5t-12 -9.5q-74 -2 -100.5 -32.5t-28.5 -108.5q-2 -55 -2 -114t2 -120q0 -47 -19 -55q-106 -55 -257.5 -92 t-278.5 -37q-297 0 -485.5 191.5t-188.5 486.5z" />
<glyph unicode="H" horiz-adv-x="1613" d="M53 8q-5 15 -5 27q0 20 15 31q10 2 52 2q72 4 98.5 32.5t26.5 102.5v921q0 80 -30 109t-110 33q-8 4 -11 20.5t1 30.5t14 14q131 -6 254.5 -6t239.5 6q8 0 20 -8q10 -10 3 -45q-2 -10 -25 -12q-88 0 -122 -33t-34 -109v-374q0 -10 9.5 -20.5t27.5 -10.5q134 -3 292.5 -3 t340.5 3q16 0 38.5 10t22.5 23v372q0 76 -33.5 109t-123.5 33h-41q-20 4 -20 26q0 11 5 27q8 18 37 18q22 1 53 1q77 0 212.5 -4t204.5 -4q28 0 44 1q20 2 28.5 -19.5t-1.5 -37.5q-4 -10 -29 -10q-76 -6 -104.5 -36t-30.5 -104q-4 -139 -4 -316t2 -364.5t2 -240.5 q0 -74 34 -104.5t122 -30.5q39 -1 45 -17q4 -9 4 -18t-3 -19q-7 -20 -26 -20h-581q-25 0 -27 18q-6 18 1 36t24 18h49q84 0 120.5 30.5t36.5 106.5v383q-4 37 -38 37q-144 -6 -308.5 -6t-347.5 6q-10 0 -23.5 -14.5t-13.5 -37.5v-368q0 -80 30 -107.5t116 -27.5h10h10 q14 2 22.5 -15.5t2.5 -37t-25 -21.5h-520q-27 0 -33 14z" />
<glyph unicode="I" horiz-adv-x="743" d="M106 25q0 39 19 38q94 8 116.5 32t26.5 108l2 71v779l-2 71q-2 82 -24.5 109t-104.5 35q-26 3 -26 27q0 10 4 24q6 14 28 14q8 0 205 -5q66 -2 117 -2q103 0 149 7h3q29 0 30 -22q6 -43 -10 -43q-4 0 -13.5 -2t-15.5 -2q-94 -2 -117.5 -36t-23.5 -175v-850 q0 -80 28.5 -106.5t112.5 -28.5q23 0 31 -2q12 -8 14 -26q1 -5 1 -9q0 -13 -4 -23q-5 -14 -13 -14q-127 4 -254 4l-254 -4q-25 0 -25 31z" />
<glyph unicode="J" horiz-adv-x="663" d="M-184 -465q0 39 26.5 67.5t63.5 28.5q14 0 28.5 -7t36 -25.5t23.5 -20.5q43 -33 51 -37q19 -8 40 -8q18 0 37 7q40 14 64 46q33 49 43.5 130t10.5 298q0 1024 -2 1110q-2 84 -35 112t-123 28q-4 -2 -13.5 0t-11.5 2q-16 2 -19 22.5t5 32.5q6 10 31 10q89 -5 216.5 -5 t293.5 5q22 0 28 -12q4 -9 4 -22v-9q-2 -18 -12 -20q-4 -2 -22 -2q-86 -6 -114 -34t-28 -108v-974q0 -145 -28 -273q-37 -180 -107 -287q-119 -182 -289 -182q-88 0 -143 36t-55 91z" />
<glyph unicode="K" horiz-adv-x="1515" d="M41 38q4 26 27 34q12 4 38 0q90 0 124 30.5t34 100.5v921q0 82 -32.5 111t-125.5 29h-40q-14 2 -19.5 23.5t2.5 33.5q4 14 29 14q209 -5 359 -5q113 0 192 3q29 0 28 -33q0 -37 -36 -36q-92 0 -125 -29t-33 -111v-430q2 -25 35 -14q39 14 73 47q94 84 215 246t121 241 q0 27 -20.5 35t-95.5 17l-21 2q-25 18 -6 53q4 14 24 10q148 -4 277 -4t238 4q29 2 24 -33q-4 -29 -24 -28q-147 -2 -209 -47q-18 -12 -39 -36t-32 -40.5t-34.5 -52t-27.5 -41.5q-70 -109 -230 -314q-25 -29 -35 -37q39 -16 117 -92q59 -57 116.5 -122.5t131.5 -161 t104 -131.5q68 -80 117 -103.5t145 -23.5q23 -1 29 -13q8 -11 8 -26q0 -5 -1 -9q-3 -22 -23 -26q-37 3 -150 3q-151 0 -438 -5q-23 4 -27 12q-6 12 -3 32.5t18 22.5q80 0 105.5 12.5t25.5 34.5q0 25 -27 60q-14 18 -56 71.5t-60.5 77t-56.5 68.5t-65.5 72.5t-64.5 61.5 t-74 61q-35 25 -71 30q-20 2 -26.5 -5t-6.5 -28v-372q0 -74 33.5 -105.5t124.5 -31.5q33 0 38 -15q12 -27 0 -51q-4 -8 -28 -8q-127 5 -263 5t-280 -5q-33 0 -39 8q-9 9 -9 26q0 6 1 12z" />
<glyph unicode="L" horiz-adv-x="1218" d="M45 42q4 20 16 24q2 0 8.5 2t8.5 2h8q150 0 164 67q4 45 4 146v841q0 82 -33 112t-125 30h-24q-14 2 -16.5 24.5t5.5 32.5q8 16 31 10q87 -2 198 -2q167 0 388 4q25 0 29 -18q4 -13 4 -24q0 -30 -31 -31q-41 -4 -66 -5q-117 -4 -139 -18t-22 -94v-938q0 -63 26.5 -87 t89.5 -24h193q121 0 168 20.5t119 116.5l71 95q29 10 43 0q11 -6 11 -15q0 -5 -3 -10q-80 -190 -131 -272q-27 -39 -63 -39q-357 6 -596 6q-191 0 -305 -4q-25 -4 -29 18q-4 6 -4 15q0 7 2 15z" />
<glyph unicode="M" horiz-adv-x="1929" d="M57 49q8 16 25 14h19q40 1 66 7q32 8 47 38.5t19.5 54t8.5 85.5q2 16 2 26q6 96 21.5 281.5t23.5 334t8 281.5q0 47 -22.5 63.5t-90.5 22.5q-28 3 -28 33q0 8 2 17q5 27 30 27q4 0 9 -1q71 -4 154 -4q55 0 114 2q39 0 49 -20l438 -998q6 -12 19.5 0.5t19.5 24.5l420 969 q14 25 51 24q72 -2 139 -2t130 2h9h8t5 -2t5 -5l3 -9q6 -49 -10 -51l-22 -2q-74 -6 -93.5 -24.5t-19.5 -61.5q0 -18 3 -49t3 -37l55 -811q10 -147 35 -179t121 -32q33 0 37 -23v-35q-2 -16 -31 -16q-70 -2 -168 -2q-148 0 -362 4q-14 0 -19 14q-4 18 0 39q0 16 35 17 q111 0 139 43q20 32 20 102q0 26 -3 57q-29 494 -49 795q0 16 -17 -2q-6 -6 -8 -14l-451 -1049q-2 -10 -31.5 -10t-33.5 10l-463 1046q-6 14 -18 13q-6 -2 -7 -8l-47 -764q-4 -82 -4 -103q0 -59 30 -84.5t114 -34.5q23 0 26 -18q8 -29 -4 -41q-2 -2 -24 -8q-81 -2 -187.5 -2 t-238.5 2q-19 4 -19 22q0 13 8 31z" />
<glyph unicode="N" horiz-adv-x="1708" d="M70 18q-1 8 -1 14q0 16 7 23q10 14 30 15q158 0 158 118v1035q-55 41 -166 43q-8 -2 -12 9t-4 25q0 33 33 33q85 -2 158 -2t135 2q29 0 49 -24l837 -959q12 -18 31 12q4 8 4 17v676q0 88 -4 123.5t-22 52.5q-18 18 -58 24q-33 4 -112 9q-12 0 -18.5 18t-1.5 34.5t20 16.5 q64 -3 166 -3q135 0 337 5q13 0 13 -39v-9q-1 -13 -5 -16q-6 -5 -24 -5q-119 -4 -144.5 -31t-25.5 -145v-1082q0 -27 -36 -31q-8 -1 -14 -1q-23 0 -28 12q-4 4 -72.5 81.5t-192.5 218t-224 255.5l-475 540q-6 4 -11.5 0t-8.5 -15t-3 -28v-755q0 -104 12 -140q20 -66 99 -71 q14 -2 34.5 0t43 -2t26.5 -13q10 -18 5 -41.5t-30 -23.5q-143 3 -253 3q-146 0 -232 -5q-16 -2 -20 26z" />
<glyph unicode="O" horiz-adv-x="1693" d="M109 639q0 313 207.5 520t533.5 207q319 0 522 -190.5t203 -481.5q0 -311 -208 -522t-521 -211q-319 0 -528 194.5t-209 483.5zM330 692q0 -281 155.5 -468t395.5 -187q131 0 225 48t147.5 134t77 188.5t23.5 225.5q0 289 -155 474t-406 185q-211 0 -337 -167t-126 -433z " />
<glyph unicode="P" horiz-adv-x="1181" d="M51 1296q0 35 17 35q147 18 471 19q168 0 272 -27q133 -35 211 -132t78 -224q0 -193 -135.5 -304.5t-374.5 -111.5q-37 0 -103 10q-6 0 -10 -7t-6 -17.5t-4 -20.5v-313q-1 -81 31 -105q29 -22 112 -22h15h71q16 -4 22 -26q5 -22 -2 -42q-6 -18 -19 -18h-3q-151 6 -310 6 q-127 0 -259 -4q-29 0 -37 12q-6 12 -6 27q2 45 61 45q76 0 100.5 14t24.5 70v944q0 100 -20 134q-18 32 -72 32h-6l-102 -2q-6 -2 -10.5 7t-6.5 21zM467 659q0 -27 29 -34q43 -8 79 -9q154 0 231 95.5t77 261.5q0 203 -140 276q-75 40 -178 40q-37 0 -78 -5q-20 -2 -20 -47 v-578z" />
<glyph unicode="Q" horiz-adv-x="1683" d="M92 643q0 309 213 516t539 207q319 0 514.5 -189.5t195.5 -482.5q0 -240 -139 -429t-368 -265q-6 -2 -8.5 -7t5.5 -11q115 -45 281 -187q96 -82 163 -112.5t163 -34.5q8 -2 8 -9q0 -12 -25 -38q-16 -16 -28 -21q-59 -12 -105 -12q-221 0 -485 225q-131 109 -144 119 q-33 25 -104 51q-305 27 -490.5 215.5t-185.5 464.5zM313 692q0 -281 158 -469t401 -188q145 0 254 94t158 227.5t49 276.5q0 293 -148.5 476t-398.5 183q-213 0 -343 -167t-130 -433z" />
<glyph unicode="R" horiz-adv-x="1425" d="M41 10q-4 8 -4 19t4 24q6 16 61 17q92 0 124 25.5t32 107.5v71v781q0 150 -26.5 179.5t-170.5 31.5q-8 0 -14 13t-3 30.5t17 23.5l21 2q133 14 487 15q178 0 263.5 -28t166.5 -101q113 -102 113 -256q0 -113 -56.5 -208t-148.5 -143q-18 -6 -4 -26q14 -25 55 -93.5 t66 -103.5l115 -172q33 -49 55.5 -72.5t73.5 -64.5q47 -37 110 -49q20 -14 20 -31q0 -10 -7 -20l-13 -9q-10 0 -30.5 -2t-30.5 -2q-121 0 -186.5 33t-116.5 92q-68 80 -174 246q-39 63 -82 143q-2 4 -8.5 15.5t-11.5 18.5t-11 16.5t-14 13.5t-17 4q-106 -13 -168 -13 q-15 0 -28 1q-14 0 -27.5 -10.5t-13.5 -22.5q0 -197 2 -303q2 -82 31.5 -107.5t121.5 -25.5q4 0 14.5 2t17.5 2t15.5 -1t14.5 -5.5t8 -12.5q6 -27 2 -45q-2 -6 -13 -11t-16 -5h-63q-137 0 -526 -4q-20 6 -27 20zM459 655q0 -41 20 -41q51 -3 90 -3q75 0 111 12 q100 35 155.5 124.5t55.5 202.5q0 162 -75 249t-267 87q-90 0 -90 -47v-584z" />
<glyph unicode="S" horiz-adv-x="1050" d="M115 328q0 10 12 14t27.5 3t19.5 -7q31 -94 63.5 -145.5t90.5 -90.5q86 -59 172 -59q117 0 187.5 65.5t70.5 165.5q0 29 -5 54.5t-20.5 52.5t-27 45t-39 44t-40 38t-48 36.5t-45 32t-48.5 33t-43 27.5q-74 49 -117.5 83t-97 86t-78 111.5t-24.5 129.5q0 141 100.5 230 t263.5 89q66 0 170 -35q57 -18 76 -18q12 0 33 18q27 8 47 0q12 -31 39 -278q-2 -20 -26.5 -20.5t-28.5 9.5q-98 250 -291 250q-96 0 -149.5 -51t-53.5 -135q0 -100 117 -203q49 -45 154.5 -116.5t176 -124t129 -140.5t58.5 -186q0 -164 -116.5 -269.5t-305.5 -105.5 q-68 0 -213 43q-51 14 -61 14q-16 0 -31 -22q-23 -10 -53 0q-25 84 -45 332z" />
<glyph unicode="T" horiz-adv-x="1394" d="M70 1014q8 168 32 352q14 12 32 12h5q21 -2 25 -12q16 -35 115 -35q148 3 359 3t484 -3q18 -1 33 -1q45 0 59 5q18 6 27 31q6 10 28.5 8t33.5 -8l32 -354q0 -4 -1 -8.5t-4 -6.5t-6 -3t-7 -2t-8 -1q-12 0 -19.5 1t-11.5 7.5t-5 9.5t-3 13q-25 127 -54.5 169t-85.5 42h-299 q-10 0 -19 -13.5t-9 -23.5v-273v-376v-273v-71q0 -80 31.5 -103.5t123.5 -23.5h60q18 0 29 -27q6 -18 0 -39q-6 -16 -33 -16q-102 4 -237 4q-169 0 -390 -6q-20 0 -25 14q-8 25 0 49q8 14 27 19q66 0 78 -2q78 0 106.5 31.5t28.5 113.5v57v926q0 10 -16.5 21.5t-30.5 11.5 h-236h-43q-57 0 -87.5 -46t-57.5 -186q-10 -6 -24.5 -7t-25.5 4.5t-11 15.5z" />
<glyph unicode="U" horiz-adv-x="1669" d="M48 1314q3 16 18 17q43 4 234.5 4t317.5 -4q12 0 16.5 -17.5t-0.5 -33.5t-16 -14h-20q-90 0 -121 -29t-35 -113q0 -14 -1 -44.5t-1 -45.5v-399q0 -250 96.5 -394.5t333.5 -144.5q305 0 396 244q32 83 32 272v11v370q0 172 -32.5 220.5t-151.5 50.5l-14 4 q-16 0 -19.5 31.5t19.5 31.5q114 2 240 2t266 -2q18 0 18 -30.5t-18 -32.5q-119 -4 -154 -52.5t-35 -214.5v-376q0 -100 -3 -152.5t-18.5 -124.5t-52 -127t-98.5 -108q-92 -82 -184 -117t-238 -35q-393 0 -534 307q-31 70 -39 128.5t-8 207.5v535q0 82 -30 103.5t-146 23.5 q-10 0 -16 16q-4 10 -3 21q0 5 1 11z" />
<glyph unicode="V" horiz-adv-x="1558" d="M49 1274q-3 9 -3 17q0 12 5 24q4 16 35 16q138 -4 272 -4t265 4q41 0 45 -6q16 -20 4 -45q-2 -10 -25 -20q-106 -4 -150 -18.5t-44 -47.5q0 -20 34 -111l318 -788q2 -4 7 -10t13.5 -13.5t16.5 -3.5t14 21l299 776q29 76 29 123q0 41 -35 60.5t-131 19.5h-17 q-12 4 -16 23.5t2 31.5q4 8 29 8q120 -4 239 -4t238 4q14 0 18 -6q7 -9 7 -21q0 -6 -1 -12q-4 -20 -18 -22q-88 -2 -130 -43t-93 -172l-412 -1065q-4 -10 -17 -24.5t-22 -14.5q-14 -3 -30 -3q-21 0 -43 5q-18 0 -31 33l-440 1099q-47 119 -79 144.5t-128 27.5q-18 4 -25 17z " />
<glyph unicode="W" horiz-adv-x="2224" d="M35 1317q2 14 39 14q132 8 272 8q120 0 246 -6q16 0 13 -31.5t-13 -35.5h-19q-68 0 -85 -11.5t-17 -46.5q0 -33 39 -129l324 -813q2 -8 9 -15t17 -3t21 28l182 449q8 18 -2 47l-146 350q-39 96 -72.5 119t-148.5 27q-14 4 -16 34.5t18 30.5q83 2 300.5 2t568.5 -2 q23 0 19.5 -31.5t-15.5 -35.5q-113 -2 -150 -25.5t-76 -120.5l-102 -250q-10 -33 0 -57l236 -563q4 -8 11 -10t16 7t16 25l313 826q32 90 32 127q1 13 -3 19q-14 24 -123 28q-12 2 -14.5 18.5t5 30.5t17.5 12q63 -3 148 -3q114 0 268 5h1q17 0 21 -32q0 -33 -24 -33 q-90 0 -129 -33t-84 -152l-422 -1105q-6 -16 -66 -16q-2 0 -4 -1q-55 0 -63 12l-244 584q-2 8 -7 12t-12.5 0t-15.5 -22l-233 -574q-7 -16 -57 -16h-12q-60 2 -69 23l-417 1073q-39 102 -67 141t-62.5 50t-122.5 14q-20 0 -31 6q-14 7 -14 24q0 12 6 27zM1069 1239 q0 -12 14 -55q4 -8 78 -178q2 -4 4 -4q3 0 9 6q8 10 12 20l53 129q27 64 27 80q0 29 -56 29q-24 -3 -46 -3t-40 3q-55 0 -55 -27z" />
<glyph unicode="X" horiz-adv-x="1607" d="M55 1274q-2 8 -2 17q1 11 5 23q8 20 32 19q137 -6 270 -6q155 0 306 8q29 0 34 -16q8 -18 -1 -35.5t-31 -17.5q-86 -2 -113 -10.5t-27 -28.5q0 -10 8.5 -25.5t17.5 -28t22.5 -30t17.5 -21.5l211 -282q16 -23 41 12q207 274 237 319q23 34 23 56q0 38 -70 39h-49 q-31 0 -38 20.5t5 32.5q8 12 35 12q112 -4 218 -4q133 0 257 6q16 -2 22.5 -19.5t0.5 -32.5t-21 -15q-123 -6 -199.5 -67.5t-170.5 -186.5l-199 -264q-6 -10 2 -29l361 -471q88 -115 116 -135q53 -39 178 -54q19 -1 19 -34q0 -29 -21 -29q-69 3 -179 3q-147 0 -367 -5 q-29 0 -35 10q-6 14 -3 34.5t15 20.5h21q109 0 108 43q-2 27 -65 113l-261 354q-6 4 -19 0t-22 -14l-286 -358q-49 -66 -49 -95q0 -43 125 -43h18q14 0 20.5 -16t2 -32.5t-18.5 -16.5q-221 4 -351 4q-86 0 -132 -2q-18 0 -18.5 35t20.5 35q88 6 139 27.5t96 80.5 q6 8 20.5 27.5t30 39t31.5 40.5l297 376q4 4 6 15.5t-2 15.5l-299 385q-96 125 -142 152.5t-167 29.5q-27 0 -31 19z" />
<glyph unicode="Y" horiz-adv-x="1490" d="M32 1278q-1 7 -1 13q0 8 2 16q2 12 8 19q5 5 11 5h3q197 -3 335 -3t216 3q8 0 17.5 -16.5t4.5 -31.5t-28 -15q-127 0 -127 -41q0 -29 64 -127l274 -422q8 -10 26.5 -1t28.5 28l219 370q66 109 66 137q0 31 -23.5 42.5t-93.5 11.5h-20q-18 8 -16 38q1 27 19 27h3 q89 -3 203.5 -3t253.5 3q18 0 18 -31q0 -35 -18 -34q-104 -6 -170 -74q-31 -33 -107 -160l-303 -514v-107.5v-128v-79.5q0 -59 25.5 -92t89.5 -41q8 0 32.5 1t34.5 -3q25 -6 25 -41t-25 -35q-244 4 -401 4q-105 0 -172 -2q-16 0 -22.5 21.5t-0.5 37.5q8 20 43 21q10 2 31 0 t25 -2q109 6 114 131q6 86 6 166q0 64 -4 125l-374 585q-72 113 -120 147t-143 38q-25 0 -29 14z" />
<glyph unicode="Z" horiz-adv-x="1443" d="M74 31q0 14 10 30l877 1143q10 14 -4.5 21.5t-26.5 7.5h-438q-156 0 -197 -34t-59 -185q0 -6 -12.5 -8t-27 3t-18.5 15q0 201 10 287q4 14 45 20h975q33 0 46.5 -15.5t-3.5 -47.5l-868 -1123q-8 -8 -11 -17t10 -19.5t50 -10.5h520q156 0 212.5 58.5t72.5 218.5l2 20 q4 6 20.5 10.5t30 2t13.5 -8.5q-8 -211 -27 -379q-4 -24 -58 -24h-4q-63 0 -293.5 -1t-357.5 -1q-438 0 -448 2q-10 0 -19.5 2t-16.5 11q-5 7 -5 16v6z" />
<glyph unicode="[" horiz-adv-x="690" d="M213 -428q-12 895 0 1788q0 29 9 40t36 13q63 6 262 0q37 0 37 -14v-31q0 -16 -16 -16q-123 -10 -140 -19q-25 -14 -24 -61q-8 -834 0 -1604q0 -41 16.5 -52t91.5 -17l50 -5q14 -2 18 -5t4 -17v-23q0 -18 -39 -18q-86 -6 -258 0q-47 4 -47 41z" />
<glyph unicode="\" horiz-adv-x="980" d="M82 1350q-16 31 59 30h43h12.5h10.5t7 -1t7 -2t5 -5t6.5 -9t7.5 -13l653 -1332q20 -43 -16 -47l-86 -10q-27 -4 -41 27q-2 4 -5 6z" />
<glyph unicode="]" horiz-adv-x="702" d="M66 -428q0 16 10 22.5t35 4.5h26q74 6 91.5 17t17.5 54q8 772 0 1606q0 47 -25 59q-12 6 -84 13l-55 4q-16 0 -16 16v31q0 14 24 14h12h263q27 -2 36 -12t9 -41q14 -1022 0 -1788q0 -37 -48 -41q-172 -6 -258 0q-39 0 -38 18v23z" />
<glyph unicode="^" horiz-adv-x="1005" d="M46 710.5q1 10.5 11 26.5q227 408 428 719h45q256 -418 428 -727q23 -37 -20 -41l-41 -4q-35 -4 -55 35q-152 270 -314 528q-23 37 -41 6q-113 -174 -321 -542q-14 -27 -53 -27q-4 0 -21.5 1t-24 3t-14.5 7t-7 15.5z" />
<glyph unicode="_" horiz-adv-x="1071" d="M-20 -383q0 8 6 12t21.5 5t30.5 0t40.5 -2t46.5 -1h805q4 0 34.5 1t53 1h39.5q41 0 41 -24v-60q0 -20 -21 -24h-43h-977q-78 0 -77 37v55z" />
<glyph unicode="`" horiz-adv-x="712" d="M143 1307q-10 10 0.5 24.5t28.5 14.5l158 2q29 0 39 -17q59 -156 100 -334q2 -18 -18.5 -22t-32.5 8q-109 141 -275 324z" />
<glyph unicode="a" horiz-adv-x="847" d="M51 160q0 152 217 209q82 23 195 75q23 14 22 37l-2 131q-4 184 -139 185q-35 0 -76 -30t-41 -62q0 -35 6 -50q-10 -10 -58 -33.5t-64 -27.5q-27 -10 -37.5 -4t-10.5 35q0 76 130 174q104 84 192 84q66 0 130.5 -33t98.5 -84q25 -33 30 -62.5t5 -128.5v-372 q0 -61 10.5 -81t35 -20t36.5 7q25 8 49 30q10 6 19 6q20 -4 20 -24q0 -11 -6 -27q-135 -119 -217 -119q-88 0 -107 107q-6 6 -8 6t-12 -8l-10 -8q-66 -57 -109 -77t-100 -20q-88 0 -143.5 51.5t-55.5 133.5zM241.5 106.5q32.5 -32.5 80.5 -32.5q33 0 91 37.5t70 70.5v152v11 t-2 15.5t-6 14.5q-2 2 -4.5 2t-5.5 -2q-47 -23 -146 -64q-110 -45 -110 -124q0 -48 32.5 -80.5z" />
<glyph unicode="b" horiz-adv-x="1005" d="M16 1371.5q0 23.5 15 27.5l250 84q12 4 20.5 4t12.5 -4q8 -8 5 -35q-3 -106 -3 -271t3 -389q6 -47 17 -49q2 0 4 2q4 4 23.5 17.5t27.5 19.5t27.5 19.5t31 19.5t30 16.5t32.5 16.5t30.5 11t32 8t29.5 3q137 0 232.5 -120.5t95.5 -288.5q0 -213 -130 -353.5t-335 -140.5 q-104 0 -281 39q-16 6 -20 37q3 254 3 546.5t-3 622.5q0 20 -1 45t-1 29q-2 33 -45 39q-14 2 -44 7t-44.5 9.5t-14.5 28zM317 444q0 -180 17 -247q16 -63 65.5 -102.5t120.5 -39.5q115 0 186.5 96.5t71.5 252t-71.5 254t-180.5 98.5q-66 0 -207 -103q0 -4 -1 -78.5 t-1 -130.5z" />
<glyph unicode="c" horiz-adv-x="864" d="M51 395q0 205 144.5 347.5t351.5 142.5q100 0 172 -37t72 -94q0 -33 -21.5 -54.5t-52.5 -21.5q-53 0 -127 72q-57 57 -117 57q-102 0 -180 -108.5t-78 -256.5q0 -158 80 -257t203 -99q147 0 241 137q10 31 35 25q6 -2 8 -4t4.5 -6.5t4.5 -8.5q7 -5 7 -14q0 -10 -10 -25 q-137 -215 -362 -215q-162 0 -268.5 119t-106.5 301z" />
<glyph unicode="d" horiz-adv-x="1050" d="M47 391q0 205 132 344t329 139q72 0 170 -32q8 -2 15 14t7 37q3 68 3 170.5t-3 241.5q-10 29 -16 32q-12 8 -30.5 10.5t-44 3.5t-36.5 3q-20 4 -22 14q-4 20 -2 29q4 16 20 18q143 45 258 88q8 3 13 3q8 0 14 -6q8 -11 8 -34v-1226q0 -82 10.5 -99.5t45.5 -17.5 q8 0 45 12q2 0 11 3t14 4t12.5 1t12.5 -4t7 -12q5 -16 5 -26q0 -16 -11 -21q-137 -68 -277 -103q-14 -6 -23 0.5t-12.5 19.5t-3.5 25.5t2 26.5v17q0 14 -6 25t-16 5q-184 -127 -289 -127q-143 0 -242.5 124t-99.5 298zM211 455q0 -158 72.5 -263.5t181.5 -105.5q88 0 213 84 q16 8 20 47v420q-109 156 -235 156q-113 0 -182.5 -93.5t-69.5 -244.5z" />
<glyph unicode="e" horiz-adv-x="876" d="M53 414q0 201 120 333t300 132q207 0 295 -181l16 -34q12 -31 41 -66q3 -9 3 -21q0 -5 -1 -11q-2 -18 -28 -19q-79 -3 -216 -3t-333 3q-37 0 -39 -21q-4 -23 -4 -61q0 -158 88 -261.5t219 -103.5q143 0 254 131q10 14 31 11q12 -4 19 -18.5t1 -24.5q-68 -80 -145 -142 q-115 -88 -242 -88q-162 0 -270.5 129t-108.5 316zM229 627q-1 -5 11 -9q14 -6 22 -6h307q16 0 33.5 6.5t15.5 18.5q-23 84 -73.5 131t-116.5 47q-199 0 -199 -188z" />
<glyph unicode="f" horiz-adv-x="657" d="M35 756.5q0 27.5 10 34.5q94 20 154 55q0 8 4 110q6 125 35.5 204t109.5 165q150 164 322 164q57 0 125.5 -24.5t97.5 -67.5q6 -9 6 -23q0 -20 -41 -86q-14 -20 -29.5 -22t-24.5 3t-30 21q-98 80 -196 80q-63 0 -115.5 -37t-73.5 -98q-29 -79 -29 -189v-14l2 -141 q0 -41 31 -41h152q25 0 28 -19l15 -92q-4 -16 -25 -16l-174 2q-10 0 -18.5 -9t-8.5 -18v-436q0 -143 20 -168q18 -24 107 -24h15h69q23 -2 27 -43q0 -33 -18 -33q-156 5 -285 5t-231 -5q-16 0 -17 33q0 16 4 22q6 14 37 14q72 0 90.5 38t18.5 169v426q-6 29 -25 33h-129 q-10 0 -10 27.5z" />
<glyph unicode="g" horiz-adv-x="989" d="M55 -287q0 70 31 115t94 86q8 6 16.5 11t17.5 10.5t15 9.5q10 8 14.5 19t-3.5 16q-143 51 -144 151q0 41 86 88q14 8 34 19.5t30 17.5l8 6q10 6 15 12.5t1 8.5q-161 81 -161 252q0 147 99 245.5t245 98.5q137 0 217 -86h16q41 0 186 22q23 4 30 -1t9 -28q7 -60 7 -92v-8 q-4 -27 -21 -27q-27 0 -127 15q-4 2 -13 -5t-7 -12q18 -45 18 -102q0 -137 -98.5 -224t-247.5 -87q-41 0 -84 12q-4 -6 -57 -53q-39 -33 -39 -53q0 -14 8 -24.5t68.5 -22t177.5 -11.5q229 -4 323 -47q105 -47 105 -188q0 -156 -159 -262.5t-380 -106.5q-115 0 -222.5 63.5 t-107.5 161.5zM205 -231q-2 -78 87 -127.5t206 -49.5q102 0 203.5 66.5t101.5 142.5q0 72 -50.5 106t-177.5 44q-49 4 -123.5 4t-113.5 2q-4 -8 -27 -31q-106 -106 -106 -157zM260 582q0 -123 52.5 -195t131.5 -72q78 0 125 61t47 167q0 117 -54 192.5t-134 75.5 q-72 0 -120 -65.5t-48 -163.5z" />
<glyph unicode="h" horiz-adv-x="1077" d="M41 57q2 2 43 11q70 4 88 38.5t18 163.5v936l-2 78q0 45 -51 53q-14 2 -41.5 5.5t-42.5 5.5q-12 2 -14 26.5t14 30.5q92 37 262 86q6 2 11 2q10 0 16 -6q10 -10 10 -41v-631q0 -14 7.5 -29.5t17.5 -9.5q82 51 143.5 74.5t143.5 23.5q172 0 217 -145q23 -68 26 -227 q0 -49 -4 -139.5t-4 -96.5q-4 -90 -4 -135q0 -39 23.5 -50t105.5 -11q20 0 24.5 -8t6.5 -33q1 -6 1 -11q0 -22 -14 -22q-75 -1 -163 -1h-91q-141 1 -182 1q-33 0 -33 35q-4 33 17 32h12q72 0 96.5 19.5t30.5 77.5q14 123 14 280q0 135 -11 188.5t-42 88.5q-49 53 -127 53 q-39 0 -78 -13.5t-56 -22.5t-67 -40q-10 -6 -10 -22v-490q0 -78 21.5 -98.5t89.5 -20.5q29 0 31 -16q0 -18 2 -27q0 -12 -8 -20q-6 -6 -13 -6h-4q-26 1 -77.5 1t-128 -1t-129.5 -1t-83 1h-2q-7 0 -12 10t-5 24q0 19 7 29z" />
<glyph unicode="i" horiz-adv-x="544" d="M41 12v9.5v8.5v11q0 11 8 17q10 8 23 10q10 2 21 0t22 0q63 8 76.5 36.5t13.5 151.5v367q0 76 -8.5 90t-46.5 22q-47 10 -84 23q-10 2 -11.5 23.5t8.5 27.5q16 6 74 28.5t104 39t72 22.5q23 10 34 0t14.5 -21.5t3.5 -31.5v-590q0 -78 2 -106q2 -55 19 -67.5t83 -12.5 q10 4 22.5 -4.5t14.5 -18.5q0 -2 -1 -9t-1 -11q0 -33 -29 -33q-136 3 -238.5 3t-170.5 -3q-18 0 -23 16zM152 1255q0 45 30.5 76t75.5 31q49 0 80 -30t31 -77q0 -45 -33 -74.5t-80 -29.5t-75.5 29.5t-28.5 74.5z" />
<glyph unicode="j" horiz-adv-x="505" d="M-219 -381q0 43 21.5 76t52.5 33q33 0 84 -62q56 -65 118 -65h2q68 0 99.5 57t31.5 188v127v658q0 66 -3 81t-17 23q-18 10 -57 17q-12 4 -35 8t-29 6q-8 4 -8 25.5t8 25.5q115 49 254 94q23 8 34 -6t11 -35v-819q0 -135 -7 -197.5t-34 -125.5q-31 -72 -84 -129 q-90 -98 -241 -99q-88 0 -144.5 34t-56.5 85zM127 1235q0 45 33 74.5t80 29.5q49 0 79.5 -29.5t30.5 -74.5t-31.5 -76t-78.5 -31q-49 0 -81 31t-32 76z" />
<glyph unicode="k" horiz-adv-x="1060" d="M31 1367q0 24 12 28q59 14 131 43.5t109 40.5q9 2 16 2q29 0 29 -37l2 -873q0 -31 41 -6l217 158q53 39 53 49q0 25 -92 25q-25 12 -23 37q2 16 7.5 22t21.5 6q54 -1 114 -1q121 0 267 3q20 0 20 -33q0 -35 -12 -34q-133 -2 -252 -95q-143 -106 -217 -157q-14 -14 8 -37 q246 -254 371 -379q41 -41 66.5 -55.5t74.5 -14.5h21q10 -4 13 -20q1 -7 1 -13q0 -10 -2 -18q-4 -14 -12 -14q-92 5 -203 5t-242 -5q-16 0 -16 35q0 20 5 25t26 5q71 0 71 28q0 13 -47 65l-264 280q-12 8 -14 -12q-2 -8 -2 -21v-145q0 -143 14 -168t96 -25h25q16 0 16 -34 q0 -15 -4 -25q-3 -9 -10 -8h-2q-110 2 -214.5 2t-203.5 -2q-14 0 -14 33q-2 23 3 29.5t27 6.5q74 0 89.5 32t15.5 175v904q0 70 -2 108q-2 31 -70 45q-6 2 -11 3l-10 2t-10.5 2t-8.5 2l-6 2t-5 1h-2q-12 4 -12 28z" />
<glyph unicode="l" horiz-adv-x="536" d="M37 12q-4 13 -4 23q0 20 16 28h23q80 0 102.5 26t22.5 110v1077q0 31 -33 37q-18 4 -52 10t-51 8q-12 4 -14 27.5t14 30.5q137 35 271 86h3q10 1 17 -13q8 -16 8 -30v-1231q0 -92 16.5 -115t90.5 -23q37 0 39 -12v-7v-10v-7q0 -33 -25 -33q-56 -2 -115 -2q-60 0 -120 2 q-81 3 -136 3q-28 0 -49 -1q-4 0 -13 5t-11 11z" />
<glyph unicode="m" horiz-adv-x="1662" d="M35 8q-3 8 -3 16q0 12 5 25q6 14 45 14q68 4 88 40t20 167v293q0 145 -6 154q-10 23 -84 33l-47 6q-12 2 -10 26.5t10 28.5q88 41 269 88q5 1 9 1q10 0 15 -7q6 -10 6 -31v-121q2 -20 27 -2q199 139 321 140q70 0 122 -40t75 -110q4 -14 23 0q72 51 105.5 72.5t100 49.5 t121.5 28q135 0 189 -123q30 -70 30 -274v-13q0 -55 -4 -161.5t-4 -162.5q0 -49 24.5 -63t112.5 -14q6 2 19.5 1t19.5 -6q9 -4 9 -23q0 -6 -1 -15q0 -13 -6 -23q-5 -9 -11 -8h-3q-58 2 -171.5 2t-283.5 -2q-20 0 -26 12q-6 10 -4 31.5t18 21.5h21q66 0 88 20.5t28 86.5 q10 139 11 287q0 190 -31 255.5t-115 65.5q-76 0 -250 -119v-473q0 -76 22.5 -99.5t90.5 -23.5q16 0 21.5 -6t7.5 -24q0 -12 -6.5 -23.5t-14.5 -11.5q-154 4 -276 4q-82 0 -150 -2q-18 0 -20 27.5t16 35.5q4 2 27 2q80 0 101.5 35t21.5 174v334q0 80 -37 125t-101 45 q-82 0 -258 -119v-473q0 -78 22.5 -100.5t100.5 -22.5q14 4 19 0q14 -4 14 -36q-2 -11 -8 -21q-5 -9 -11 -8h-2q-100 4 -208.5 4t-225.5 -4q-14 0 -18 14z" />
<glyph unicode="n" horiz-adv-x="1056" d="M33 40q4 20 18 19h12q72 0 94.5 39t22.5 174v281q0 150 -8 166q-8 18 -80 33l-41 8q-10 2 -10 26.5t10 28.5q33 6 119 43t123 45q10 2 17 2q30 0 30 -37v-112q0 -6 7 -18.5t15 -6.5q96 68 170 105q86 41 144 41q227 0 227 -369q0 -61 -8 -184t-8 -187q0 -47 16.5 -60.5 t85.5 -13.5q18 12 33 -6q6 -11 6 -25q0 -8 -2 -18q-2 -12 -6 -15t-19 -3h-6q-43 0 -193 1h-89q-77 0 -107 -1q-20 0 -25.5 6t-7.5 27q0 35 17 34h14q68 6 93.5 29t31.5 86q12 119 12 361q0 227 -149 227q-96 0 -252 -121v-463q0 -78 22.5 -98.5t102.5 -20.5q14 0 18 -34 q0 -33 -28 -35q-24 1 -72.5 1t-122.5 -1q-49 -1 -87 -1q-77 0 -110 3q-25 0 -28 10q-4 8 -4 19q0 7 2 15z" />
<glyph unicode="o" horiz-adv-x="1030" d="M51 424q0 197 132 327t329 130q199 0 334 -132q133 -130 133 -321v-6q0 -190 -133 -321.5t-328 -131.5q-199 0 -333 130t-134 325zM229 489q0 -186 92.5 -315t221.5 -129q109 0 181.5 92.5t72.5 235.5q0 178 -93.5 306t-220.5 128q-109 0 -181.5 -90t-72.5 -228z" />
<glyph unicode="p" horiz-adv-x="1030" d="M13 -522q3 22 20 22h18q86 0 108.5 40t22.5 190v848v49q0 39 -9 49t-44 20q-12 4 -35.5 12.5t-36 10.5t-13.5 19.5t5 23.5q2 4 12 14l226 142q22 14 35 14q20 0 20 -31v-127q0 -41 16 -39q2 0 4 2q184 131 291 131q129 0 224.5 -122.5t95.5 -284.5q0 -195 -135.5 -339.5 t-317.5 -144.5q-61 0 -153 29q-12 4 -18.5 -1t-6.5 -32v-243q0 -147 23.5 -185.5t109.5 -38.5h29q31 0 37 -16q8 -29 -2 -47q-6 -12 -27 -12q-46 2 -121 2q-57 0 -131 -1q-103 -2 -158 -2q-36 0 -51 1q-27 0 -33 10t-6 25q0 5 1 12zM342 174q117 -111 236 -111 q102 0 168.5 90.5t66.5 227.5q0 156 -75.5 260t-186.5 104q-86 0 -197 -88q-12 -12 -12 -36v-447z" />
<glyph unicode="q" horiz-adv-x="1032" d="M63 399q0 199 129.5 336t317.5 137q117 0 233 -59q23 -12 31 4q29 33 55 53q10 6 27 8h3q14 0 22 -10q-14 -55 -15 -153v-90v-891q0 -143 21.5 -188.5t89.5 -45.5h20q14 0 17 -20q2 -7 2 -12q0 -13 -6 -23q-4 -10 -11 -12h-18q-115 4 -229.5 4t-227.5 -4q-39 0 -39 30 q0 33 17 41q14 2 80 2q84 0 106.5 39t22.5 189v327h2q0 2 -1 7.5t-3 14.5t-6.5 13t-8.5 0q-147 -123 -286 -123q-150 0 -247.5 122t-97.5 304zM221 455q0 -160 80 -266.5t197 -106.5q92 0 200 92q9 8 15 37l-2 235q-2 166 -19 218q-23 61 -79 101t-126 40 q-123 0 -194.5 -93.5t-71.5 -256.5z" />
<glyph unicode="r" horiz-adv-x="716" d="M41 29v17t3 9t8 6h16q74 0 97 38t23 171v394q-6 27 -20 30l-86 33q-31 12 -35 25v6v16q0 18 16 23q25 12 121 45q74 25 123 49q9 4 16 4t11 -3q10 -7 10 -26v-73t2 -70q0 -8 3 -12t5 -3t4 1q61 133 93 149q26 14 60 14q54 0 130 -34q6 -2 18.5 -6t16.5 -5q19 -3 19 -17 q0 -3 -1 -7q-16 -49 -59 -129q-27 2 -76 26q-45 23 -74 23q-68 0 -137 -131q0 -356 2 -410q2 -78 23.5 -98.5t99.5 -20.5h45q14 0 20.5 -27.5t-8.5 -39.5q-2 -2 -28 -2q-164 3 -273 3t-163 -3h-5q-11 0 -15 7q-4 9 -5 28z" />
<glyph unicode="s" horiz-adv-x="643" d="M70 641q0 111 77.5 180.5t198.5 69.5q78 0 172 -39q6 -82 6 -143q0 -37 -2 -66q0 -10 -28 -10q-12 0 -20.5 3t-6.5 7q-14 82 -55 127t-99 45q-49 0 -80.5 -30.5t-31.5 -77.5q0 -72 123 -162q20 -14 62 -42t72.5 -51.5t55.5 -50.5q70 -76 70 -170q0 -106 -79 -178.5 t-190 -72.5q-53 0 -102 14q-2 0 -17.5 6t-23.5 8q-16 0 -27 -26q-24 -7 -31 -7h-1q-18 2 -21 21q-18 144 -18 219v14q-2 12 10 15.5t31 1.5q10 -4 14 -21q43 -184 180 -184q55 0 94 39t39 92q0 20 -5 39.5t-19.5 39t-23.5 32t-33.5 31t-33 25.5t-37 26.5t-32.5 21.5 q-57 39 -92 67.5t-65.5 79t-30.5 107.5z" />
<glyph unicode="t" horiz-adv-x="653" d="M43 799q4 8 16 14q117 59 189 260q0 7 13 13q8 3 16 4q5 0 9 -2q12 -4 13 -15q-3 -60 -3 -105.5t3 -74.5q2 -8 10 -17.5t15 -9.5h227q35 0 24 -32q-4 -33 -18 -68q-10 -16 -33 -16l-194 4q-8 0 -18.5 -8.5t-12.5 -16.5v-362q0 -158 28.5 -214.5t102.5 -56.5q66 0 123 109 q2 10 20.5 9t26.5 -11q6 -7 6 -18q0 -9 -4 -21q-84 -186 -240 -187q-96 0 -157.5 72t-61.5 184v84v410q0 18 -12 23h-41q-16 0 -41 6q-9 15 -9 28q0 8 3 15z" />
<glyph unicode="u" d="M40 820v6q0 16 13 20q20 4 117.5 28.5t138.5 32.5q16 2 24.5 -10t8.5 -29v-491q0 -164 38 -220.5t142 -56.5q100 0 230 103l2 6q2 6 4 15t2 18v354q0 92 -6 121q-14 57 -62 65q-14 4 -26.5 5t-18.5 4q-2 0 -67 10q-12 8 -10.5 28.5t14.5 24.5q209 47 293 55h8 q33 0 33 -32v-652v-63q0 -51 49 -51q17 0 39 6q4 2 13 4t16 4l14 4q12 3 17 -13q3 -9 3 -18q0 -8 -2 -16q-4 -18 -16 -19q-113 -49 -234 -73q-23 -8 -39 -3t-18 31l-4 80q0 8 -4 22.5t-11 8.5q-68 -49 -104.5 -73.5t-101 -50t-123.5 -25.5q-231 0 -232 282v434q0 35 -8 51.5 t-37 24.5q-14 4 -40.5 11.5t-41.5 11.5q-10 3 -13 25z" />
<glyph unicode="v" horiz-adv-x="1019" d="M8 826q2 30 20 32q7 1 39 1q46 0 144 -2q70 -1 126 -1q74 0 122 2q12 0 12 -33q0 -31 -16 -30h-19q-47 0 -72.5 -7.5t-29.5 -14.5t-4 -19q0 -14 43 -121t104.5 -250t61.5 -145q2 -2 6 -10.5t7 -11.5t7 -6t8 1t8 14q133 324 197 459q9 19 9 35q1 31 -35 48q-54 26 -119 28 q-8 6 -8.5 34.5t16.5 28.5q83 -2 174 -2t190 2q9 0 13 -16q2 -8 2 -16q0 -7 -1 -14q-3 -15 -9 -15q-66 -8 -96.5 -46t-88.5 -169l-250 -578q-12 -23 -28 -24q-12 -3 -24 -3q-16 0 -32 5q-10 4 -20 30l-266 613q-45 106 -62 127q-27 29 -117 43q-12 2 -12 25v6z" />
<glyph unicode="w" horiz-adv-x="1542" d="M4 814q-1 7 -1 12q0 11 3 16q4 14 29 10q20 0 76.5 -2t128 -2t166.5 4h10q20 2 24 -16q6 -12 3 -27.5t-15 -15.5q-104 -4 -104 -48q0 -25 88 -247q45 -115 110 -271q4 -10 13.5 -18t17.5 2l184 432v-2q-45 90 -65 111q-33 33 -90 36q-6 0 -18.5 1.5t-20.5 1.5 q-14 0 -15 30q-4 33 11 33q198 -5 305 -5q80 0 110 3q33 4 39 -14q4 -12 2 -27.5t-6 -19.5q-108 -2 -108 -53q0 -28 30 -101l172 -416q6 -10 16.5 -2t14.5 19q166 387 178 454q3 15 3 28q-1 30 -17 44q-24 20 -74 24q-39 0 -59 3q-10 4 -12.5 33.5t16.5 29.5q75 -2 164 -2 t192 2h3q12 0 16 -14q4 -10 4 -20q0 -6 -1 -11q-3 -16 -11 -18q-82 -8 -105 -41q-10 -16 -43 -95q-45 -111 -262 -651q-6 -16 -10 -20t-25 -7q-25 -5 -34 -5q-3 0 -5 1q-14 2 -20 17l-4 10l-222 535q-6 12 -20 -15l-219 -516q-6 -25 -27 -27q-4 -2 -12 -2h-23q-14 0 -18 2 q-12 2 -18 15l-5 10l-249 616q-45 115 -73 141.5t-106 31.5q-10 3 -12 23z" />
<glyph unicode="x" horiz-adv-x="1069" d="M14 25q0 31 17 30q74 2 114.5 28t124.5 122l183 207l-170 227q-74 100 -114 126t-126 30q-12 5 -11 33q1 27 18 26h3q54 -3 153.5 -3t244.5 3q20 0 22 -4q6 -8 7 -20.5t-2 -22.5t-7 -10h-18q-70 0 -70 -24.5t74 -121.5q55 -74 80 -98q12 -16 20 -17t25 17q45 45 80 90 q55 66 55 105q0 23 -18.5 34t-71.5 13h-8.5h-6.5t-5 3t-5 7q-6 16 -2 37q2 13 17 13q4 0 8 -1q154 -2 251 -2t138 2h4q13 0 20 -10q8 -20 2 -37q-4 -12 -30 -12q-90 -6 -131 -28t-107 -95l-78 -86l-96 -111q117 -150 165 -212t83 -105q43 -55 81 -76t103 -25q17 -10 17 -37 q0 -10 -5.5 -18t-13.5 -6q-92 2 -177 2q-129 0 -245 -4q-18 0 -18 29.5t18 29.5h19q71 0 71 32q0 11 -9 26.5t-24.5 34t-19.5 22.5l-117 156q-31 39 -47 20q-4 -6 -30.5 -33.5t-49 -53.5t-48 -56.5t-41 -54t-15.5 -33.5q0 -27 23.5 -40.5t87.5 -19.5h16q10 0 14 -16.5 t0 -30.5q-4 -12 -12 -12h-2q-103 4 -223 4q-80 0 -168 -2q-12 0 -17 29z" />
<glyph unicode="y" horiz-adv-x="999" d="M18 840q6 23 41 18h35q78 0 314 4q35 0 38 -16q4 -14 0 -30.5t-12 -18.5q-66 -2 -86 -14.5t-20 -37.5q0 -23 22 -71q43 -94 189 -459q6 -14 28 21q4 4 4 6l123 313q20 51 31 84q18 55 18 84q0 41 -24.5 56.5t-100.5 17.5q-10 6 -11 31.5t18 27.5h16q98 6 178 6 q64 0 117 -4q35 0 39 -18q1 -4 1 -8q0 -9 -3 -20q-4 -15 -10 -15q-63 -8 -101.5 -56.5t-99.5 -210.5l-254 -684q-72 -184 -86 -219q-31 -74 -74 -125q-33 -43 -94 -43q-39 0 -67.5 28t-28.5 64q0 63 102 89q63 16 105.5 72.5t78.5 176.5l29 95l-260 618q-55 133 -82 161 t-100 34q-6 2 -11 16q-3 10 -3 19q0 4 1 8z" />
<glyph unicode="z" horiz-adv-x="839" d="M31 35q2 6 8 13t8 11l498 678q4 12 -15 19q-17 1 -39 1q-44 0 -109 -3q-97 -4 -138 -4q-43 0 -65.5 -33t-53.5 -158q-4 -10 -20.5 -12t-26.5 4q-16 6 -12 29q51 281 61 325q4 6 30.5 6t26.5 -8q0 -35 14 -45q12 -8 56 -8h18q267 4 396 4h71q35 0 43 -8q8 -33 -4 -47 q-287 -375 -502 -688q-2 -6 7.5 -11.5t17.5 -3.5q68 -6 145 -6t164 6q51 2 75 28t60 112l9 10q8 20 41 12q15 -3 15 -12q0 -2 -1 -4l-84 -230q-6 -12 -23 -16q-167 -4 -331.5 -4t-327.5 4q-13 0 -13 25q0 6 1 14z" />
<glyph unicode="{" horiz-adv-x="1026" d="M215 459q-6 14 0 26q0 14 14 19q102 20 161 77.5t59 131.5q0 49 -25 153q-23 90 -23 170q0 158 112 276t286 144q12 0 14 -10q8 -29 4 -33q0 -2 -2 -2q-2 -2 -2 -4q-4 -10 -18 -14q-109 -25 -165.5 -86.5t-56.5 -151.5q0 -59 19 -151q23 -117 22 -181q0 -141 -112 -248 q-63 -59 -127 -88q-33 -12 -2 -28q242 -121 241 -338q0 -82 -20 -176q-18 -90 -19 -152q0 -180 226 -244q10 0 16 -10l2 -2q8 -21 0 -39q-6 -10 -20 -8q-176 27 -286 143.5t-110 274.5q0 63 23 164q25 109 25 155q0 78 -58.5 134.5t-167.5 78.5q-10 4 -10 19z" />
<glyph unicode="|" d="M483 10v1700q0 29 10.5 40t36.5 11q37 -8 60 -4q12 0 18 -1t8 -6t2 -9t-1 -15.5t-1 -19.5v-842q0 -793 -2 -864q0 -45 -45 -45q-23 4 -51 0q-23 0 -29 13.5t-6 41.5z" />
<glyph unicode="}" horiz-adv-x="1026" d="M217 -485q0 2 1 10t1 12q4 14 14 17q109 23 167.5 85t58.5 150q0 57 -21.5 165.5t-21.5 166.5q0 139 114 250q59 59 127 88q12 6 11.5 15t-13.5 15q-240 121 -239 334q0 53 20.5 163t20.5 165q0 180 -215 242q-8 2 -17.5 12t-7.5 22q0 31 16 29q176 -27 287 -143.5 t111 -274.5q0 -55 -24.5 -159.5t-24.5 -159.5q0 -74 53 -129t153 -80q29 -8 29 -33q0 -35 -24 -39q-98 -23 -153.5 -78t-55.5 -127q0 -55 24.5 -161.5t24.5 -161.5q0 -154 -105.5 -269.5t-271.5 -146.5q-14 -4 -27.5 2t-11.5 19z" />
<glyph unicode="~" horiz-adv-x="1161" d="M49 518q6 143 90 237.5t205 94.5q106 0 279 -94q2 0 24.5 -13.5t26.5 -15.5t25.5 -13.5t29.5 -14.5t26.5 -11t30 -11t26.5 -8t29.5 -6t28.5 -1q145 0 177 169q4 27 24 27l23 -2q12 -2 20 -9t6 -13q-10 -147 -91 -243.5t-198 -96.5q-115 0 -294 96q-6 4 -52.5 28.5t-69 35 t-59.5 22.5t-65 12q-68 0 -116 -48t-58 -130q-4 -27 -31 -23q-10 2 -17.5 4.5t-13.5 9.5t-6 17z" />
<glyph unicode="&#xa1;" horiz-adv-x="557" d="M162 776q0 47 33.5 80t85 33t85 -32t33.5 -81q0 -51 -33.5 -84t-85 -33t-85 33t-33.5 84zM176 -426l76 948q4 10 27.5 10t27.5 -10l82 -950q4 -47 -8 -64.5t-64 -17.5h-65q-53 0 -66.5 17.5t-9.5 66.5z" />
<glyph unicode="&#xa2;" horiz-adv-x="915" d="M98 389q0 207 145.5 352.5t352.5 145.5q10 0 59 -4l101 262q8 14 26 12q2 0 10.5 -1t11.5 -1t8 -2t7 -5t2 -8t-2 -14l-100 -256q127 -38 127 -118q0 -33 -22.5 -54.5t-57.5 -21.5q-37 0 -76 33q-25 25 -35 -2l-227 -570q-12 -35 34 -48t87 -13q76 0 130 34.5t114 106.5 q12 16 26 8l21 -12q16 -10 -4 -41q-143 -209 -363 -209q-41 0 -86 10q-23 6 -33 -20q-94 -256 -116 -299q-12 -27 -33 -25l-31 6q-12 2 -6 19l4 8l123 309q10 31 -10 43q-84 55 -135.5 156.5t-51.5 218.5zM262 436q0 -162 90 -268q12 -16 25 10l237 600q-37 29 -88 29 q-106 0 -185 -108.5t-79 -262.5z" />
<glyph unicode="&#xa3;" horiz-adv-x="1630" d="M31 -416q0 57 76.5 129t175.5 113q61 109 110 240l13 32q4 8 -2.5 18.5t-18.5 10.5h-238q-29 0 -30 2q-12 4 -6 25q0 4 2 10q2 12 3 17t5 11.5t12 8.5t21 2h290q18 49 70.5 193.5t83.5 221.5q94 244 186 400q242 414 541 414q104 0 184 -48t80 -118q0 -33 -23.5 -55.5 t-58.5 -22.5q-43 0 -90 47q-14 12 -26 27q-72 72 -148 71q-94 0 -168 -100q-80 -104 -168 -328q-195 -481 -278 -663q-16 -37 10 -39h8l271 2h26q25 0 19 -27l-7 -26q-4 -29 -47 -29l-338 4q-76 -154 -153 -254q88 41 200 41q92 0 168 -35t162 -98q80 -61 135 -92 q74 -43 142 -43q74 0 126 43t52 104q0 33 -33 90q-27 45 -27 72q0 37 25 61.5t59 24.5q47 0 78 -44t31 -110q0 -143 -126 -255.5t-284 -112.5q-119 0 -217 63q-31 20 -92 70q-6 6 -42 34.5t-54 43.5q-121 90 -207 90q-63 0 -156 -43l-6 -4q-55 -113 -124.5 -182.5 t-127.5 -69.5q-29 0 -49 18.5t-20 44.5z" />
<glyph unicode="&#xa4;" horiz-adv-x="1429" d="M207 272l133 134q-57 88 -75.5 145t-18.5 149q0 90 18.5 146.5t75.5 134.5l-133 133l92 96l135 -135q74 59 131.5 79t151.5 20q96 0 152.5 -19.5t136.5 -79.5l129 135l94 -96l-131 -133q57 -82 76.5 -140.5t19.5 -152.5q0 -96 -19.5 -152.5t-76.5 -129.5l131 -134 l-94 -94l-129 133q-82 -59 -138.5 -78.5t-153 -19.5t-151.5 19.5t-129 78.5l-135 -133zM379 694.5q0 -143.5 98 -245t238 -101.5q143 0 243.5 100.5t100.5 244t-99.5 244.5t-238.5 101q-141 0 -241.5 -100t-100.5 -243.5z" />
<glyph unicode="&#xa5;" horiz-adv-x="1071" d="M-6 1409q0 4 2 8v6q-2 18 18 19q238 -8 445 2q23 0 22 -29q6 -16 0 -24q0 -18 -10 -21h-6q-113 -8 -113 -53q0 -10 19 -55l53 -132q8 -20 53 -20h232q29 0 39 25l45 110q20 53 20 74q0 43 -76 49q-43 8 -43 27v22q0 18 23 19h8q188 -8 336 2q20 2 20 -25v-24v-9 q0 -10 -18 -10q-57 0 -90 -29.5t-74 -123.5l-37 -87q-10 -20 33 -20h154q31 0 30 -29v-41q0 -33 -30 -32h-211q-27 0 -35 -21l-64 -139q-6 -12 5.5 -21.5t27.5 -9.5l281 4q27 -8 26 -26v-52q0 -29 -41 -28l-303 2q-29 0 -41 -2q-14 0 -20 -13l-37 -84v-360q0 -127 23.5 -161 t101.5 -34h22q31 0 31 -26v-25q0 -16 -5 -19t-28 -1q-258 14 -499 0q-12 0 -20.5 6t-6.5 14l2 27q2 23 27 22h18q90 0 112.5 32t22.5 165v338l-45 100q-8 20 -28 21h-15h-315q-37 0 -37 33v49q0 23 41 22l252 -4q20 0 32.5 6t6.5 25l-56 131q-12 29 -32 29h-213 q-31 0 -31 28v47q0 27 35 27h147q10 0 21.5 8t7.5 17l-39 92q-33 82 -65.5 110.5t-90.5 32.5q-14 0 -16 21q-4 4 -4 18zM485 985l84 -205q4 -12 13.5 -12t17.5 16l80 199q8 25 -12 25h-166q-27 0 -17 -23z" />
<glyph unicode="&#xa6;" d="M483 -45v778h133v-778h-133zM483 981v780h133v-780h-133z" />
<glyph unicode="&#xa7;" horiz-adv-x="1005" d="M109 881q0 225 145 388t344 163q45 0 107.5 -15.5t119 -52.5t56.5 -84q0 -35 -28 -62.5t-62 -27.5q-41 0 -91 49q-4 4 -9 8t-10 10.5t-7 8.5q-74 78 -139 77q-76 0 -129.5 -48t-53.5 -115q0 -18 7.5 -44t22.5 -55.5t29.5 -55.5t38 -60.5t37 -54t37 -51.5t27.5 -38 q170 -242 234.5 -355.5t95.5 -225.5q22 -88 22 -201q0 -211 -147.5 -367.5t-345.5 -156.5q-104 0 -188.5 43t-84.5 104q0 33 24.5 61.5t57.5 28.5q12 0 22.5 -4t18.5 -8t18.5 -13.5t14.5 -14.5t15 -17t14 -17q74 -80 157 -79q70 0 126.5 48t56.5 107q0 88 -119 252 q-207 287 -314 475q-121 213 -120 400zM246 1090q-88 -231 51 -508q57 -111 189 -305.5t184 -286.5q53 -96 67 -137q6 -16 17 -11q12 6 18 23q25 63 25 153q0 172 -74 330q-39 76 -82 144q-47 70 -98 147q-76 111 -146 219q-96 147 -123 232q-10 25 -16 22q-6 -4 -12 -22z " />
<glyph unicode="&#xa8;" horiz-adv-x="712" d="M53 1108q0 51 36 87t87 36t87 -36t36 -87t-36 -87t-87 -36t-87 36t-36 87zM416 1108q0 51 35.5 87t87 36t88.5 -36t37 -87t-37 -87t-88.5 -36t-87 36t-35.5 87z" />
<glyph unicode="&#xa9;" horiz-adv-x="1630" d="M86 713q0 305 215 522t518 217t518 -216t215 -523q0 -305 -215 -522.5t-518 -217.5t-518 217.5t-215 522.5zM172 713q0 -270 189.5 -462t457.5 -192t457.5 192t189.5 462q0 272 -189.5 462.5t-457.5 190.5t-457.5 -190.5t-189.5 -462.5zM340 707q0 209 149.5 348 t370.5 139q76 0 191 -39q25 -8 34 -8q14 0 21.5 8t19.5 39h41q18 0 21 -23l18 -239v-35q0 -14 -14 -14h-33q-12 0 -16 12q-2 2 -4 12.5t-6 16.5q-76 201 -285 200q-143 0 -229.5 -103t-86.5 -284q0 -199 85 -305t241 -106q184 0 299 149q16 20 29 12l31 -16q16 -9 0 -29 q-152 -203 -394 -202q-205 0 -344 134t-139 333z" />
<glyph unicode="&#xaa;" horiz-adv-x="557" d="M47 942q0 94 146 127q76 18 139 51v97q0 104 -90 104q-29 0 -56 -21q-16 -18 -16 -28l8 -33l-112 -51q-10 29 -11 35q0 45 88 108q66 49 127 49q94 0 135 -44t41 -144v-170v-57q0 -55 27 -56q20 0 70 33l14 -39q-96 -80 -147 -80q-61 0 -74 70q-4 -2 -8 -6t-9 -6 q-74 -57 -137 -58q-59 0 -97 33t-38 86zM160 956q0 -29 19.5 -47t47.5 -18q27 0 66 27.5t39 50.5v100q-39 -16 -66 -27q-72 -29 -89 -44t-17 -42z" />
<glyph unicode="&#xab;" horiz-adv-x="759" d="M63 471l320 410h63l-206 -410v2l206 -405h-63zM362 471l256 375h58l-137 -375l139 -367h-60z" />
<glyph unicode="&#xac;" horiz-adv-x="1429" d="M145 881v137h1145v-645h-135v508h-1010z" />
<glyph unicode="&#xad;" horiz-adv-x="890" d="M90 432v82q0 16 13.5 25.5t25.5 9.5q68 -2 303.5 1t349.5 -1q10 0 19.5 -11.5t9.5 -21.5l-4 -80q-6 -25 -35 -28q-158 4 -357.5 1t-303.5 -1q-14 0 -21 24z" />
<glyph unicode="&#xae;" horiz-adv-x="1630" d="M63 713q0 313 219.5 534t528.5 221t528.5 -221t219.5 -534q0 -311 -219.5 -532.5t-528.5 -221.5t-528.5 221t-219.5 533zM152 712.5q0 -276.5 192.5 -471t466.5 -194.5t468 194.5t194 471t-194 471t-468 194.5t-466.5 -194.5t-192.5 -471zM393 266v29q0 16 25 16 q55 2 69.5 23.5t14.5 107.5v549q0 86 -12.5 106.5t-63.5 24.5q-20 0 -20 19v18q0 16 2 19q4 4 26 4q41 -2 110.5 -2t156.5 1t116 1q141 2 230.5 -66.5t89.5 -179.5q0 -166 -203 -236q-20 -4 -6 -24l194 -279q35 -49 57.5 -66.5t57.5 -19.5q12 0 12 -4v-8v-10v-21 q0 -18 -24 -18q-92 4 -166 0q-18 0 -29 14l-297 412h-39q-20 0 -20 -37v-199v-78q0 -49 108 -51q14 0 15 -20v-23v-12q0 -6 -9 -6h-16q-195 10 -354 0q-25 0 -25 16zM674 764q0 -12 3 -16.5t17 -4.5q121 0 186.5 48.5t65.5 132.5q0 82 -55 135t-141 53q-37 0 -76 -12v-336z " />
<glyph unicode="&#xaf;" horiz-adv-x="714" d="M18 1063v92q0 23 43 23h21h575q23 0 32 -6.5t9 -26.5v-90q0 -31 -47 -31h-598q-35 0 -35 39z" />
<glyph unicode="&#xb0;" horiz-adv-x="849" d="M98 1053q0 139 95.5 236t232.5 97t233.5 -97t96.5 -236q0 -137 -96.5 -234.5t-233.5 -97.5t-232.5 97t-95.5 235zM209 1053q0 -90 63.5 -154.5t153.5 -64.5t154.5 64.5t64.5 154.5q0 92 -64.5 156.5t-154.5 64.5t-153.5 -64.5t-63.5 -156.5z" />
<glyph unicode="&#xb1;" horiz-adv-x="1429" d="M145 -2v45q0 27 6.5 36t32.5 7q53 -4 425 -4t640 4q25 0 33 -8t8 -33v-53q0 -31 -20 -37q-12 -6 -49 -6q-233 -2 -1020 -2q-39 0 -49 10q-2 4 -7 16v25zM145 836v55v20q0 8 2 13q6 8 33 8h438q20 0 25.5 5t5.5 24v407q0 6 -1 14.5t-1 12.5q0 47 29 47h80q18 0 23 -7.5 t5 -37.5v-443q-4 -23 21 -22h442q29 0 36 -7t7 -28v-63q0 -27 -9 -32t-40 -5h-426h-16q-6 0 -8 -2q-6 -4 -7 -21v-442q0 -31 -6 -36t-37 -5q-35 -10 -61 0q-25 0 -31 10l-2 6v6t1 8.5t1 10.5v438q0 16 -6 21.5t-22 5.5h-433q-27 0 -35 6t-8 33z" />
<glyph unicode="&#xb2;" horiz-adv-x="614" d="M18 633v31q53 63 168 161q2 2 28 22.5t32 27t29.5 27t31.5 31.5t26.5 30.5t26 34t17.5 33t14 36.5t4 37q0 47 -36.5 81t-92 34t-99.5 -36t-65 -100q-4 -10 -37.5 -9t-33.5 13q10 109 84.5 172.5t183.5 63.5q104 0 177 -57.5t73 -147.5q0 -18 -4 -37.5t-8.5 -34t-15.5 -31 t-16 -26.5t-23.5 -26.5t-23.5 -22.5t-27.5 -22.5t-27 -19.5t-30 -20.5t-27.5 -19.5q-74 -49 -151 -119q-6 -4 4 -8q12 -4 22 -4h176q66 0 78 8q6 6 12 19q0 4 4.5 18t6.5 27q2 10 24 10h15q36 0 36 -12q-27 -166 -28 -166h2q-6 -14 -33 -15h-475q-20 0 -21 17z" />
<glyph unicode="&#xb3;" horiz-adv-x="614" d="M4 698q0 25 19.5 42.5t46.5 17.5q12 0 27.5 -6.5t24.5 -11.5t26.5 -17t21.5 -14q45 -33 82 -33q55 0 99 49t44 117q0 51 -30.5 86t-69.5 35q-35 0 -72 -27q-35 -20 -55 12q-4 8 -1 22.5t11 18.5q156 100 156 164q0 29 -25.5 50.5t-62.5 21.5q-86 0 -144 -103 q-20 -27 -47.5 -9.5t-21.5 36.5q39 82 105.5 128t148.5 46q76 0 129 -38t53 -99q0 -68 -68 -119q-14 -12 2 -18q63 -20 100.5 -67.5t37.5 -113.5q0 -109 -101.5 -187.5t-230.5 -78.5q-78 0 -141.5 26.5t-63.5 69.5z" />
<glyph unicode="&#xb4;" horiz-adv-x="714" d="M242 991l100 336q14 27 39 27h180q12 2 21.5 -3.5t7.5 -15.5v-6l-2 -4l-293 -352q-10 -12 -34.5 -8t-18.5 26z" />
<glyph unicode="&#xb6;" horiz-adv-x="960" d="M-18 940q0 193 127 301.5t350 110.5q453 0 489.5 2t36.5 -29v-37q0 -25 -35 -24h-78q-27 0 -26 -37v-1704q0 -23 -5 -28t-30 -5h-33q-35 0 -35 31l2 1706q0 33 -36 33h-105q-27 0 -26 -29l2 -1716q0 -25 -33 -25h-43q-20 0 -25.5 6t-5.5 27v979q0 31 -37 30 q-160 2 -257 53.5t-150 151.5q-47 88 -47 203z" />
<glyph unicode="&#xb7;" horiz-adv-x="526" d="M156 575.5q0 45.5 31.5 78t76.5 32.5t77 -32t32 -79q0 -45 -32 -77.5t-77 -32.5t-76.5 32.5t-31.5 78z" />
<glyph unicode="&#xb8;" horiz-adv-x="714" d="M211 -266l170 286h57l-57 -106q-4 -8 -4 -12q2 -2 6 -3t6 -1q59 -8 98 -54.5t39 -109.5q0 -80 -56 -136.5t-136 -56.5q-47 0 -86 15q-23 8 -8 30q6 12 8 15q4 12 18 8q31 -6 45 -6q43 0 73 28.5t30 67.5q0 74 -58 74q-29 0 -129 -52q-8 -4 -15 -0.5t-1 13.5z" />
<glyph unicode="&#xb9;" horiz-adv-x="614" d="M100 1149q141 84 209 166q4 6 45 6t41 -12v-586q0 -23 4 -29q4 -8 25 -10q23 0 33 2q18 0 26.5 -1t16.5 -11.5t8 -28.5q0 -33 -14 -33q-166 6 -330 0q-16 0 -16.5 33t16.5 33l59 6q25 4 32 10t7 27l-2 426q-2 12 -4 14q-23 -14 -63 -35q-29 -12 -62 -24 q-20 -2 -30.5 16.5t-0.5 30.5z" />
<glyph unicode="&#xba;" horiz-adv-x="737" d="M63 1102q0 119 87.5 198.5t218.5 79.5t220 -79.5t89 -198.5t-89 -199t-216 -80q-133 0 -221.5 80t-88.5 199zM188 1141q0 -111 59.5 -186.5t141.5 -75.5q70 0 116 54t46 138q0 106 -60.5 181t-140.5 75q-70 0 -116 -52t-46 -134z" />
<glyph unicode="&#xbb;" horiz-adv-x="759" d="M86 104l137 367l-137 375h61l252 -375l-252 -367h-61zM315 68l207 405v-2l-207 410h64l321 -410l-321 -403h-64z" />
<glyph unicode="&#xbc;" horiz-adv-x="1464" d="M100 1149q145 88 211 166q4 6 46 6t42 -12v-588q0 -23 5.5 -30t25.5 -9h31q27 2 39 -5t12 -34q0 -33 -14 -33q-170 6 -332 0q-18 0 -19 33q4 33 17 33l63 4q23 2 29 9t6 30v426q-2 14 -4 14q-31 -20 -63 -33q-41 -16 -64 -26q-20 0 -30.5 18.5t-0.5 30.5zM194.5 -55.5 q-4.5 14.5 4.5 24.5l968 1370l4 9q4 4 13 4h8h84q4 0 6 -4.5t1 -11.5t-5 -15l-971 -1374q-10 -16 -28 -17h-66q-14 0 -18.5 14.5zM856 188v5v4v32l363 463q35 10 59 4q20 -4 18 -24v-389q0 -10 23 -11h80q25 0 24 -34v-17q0 -4 1 -10t1 -8t-1 -7.5t-3 -7.5q-4 -12 -26 -12 h-76q-18 -4 -23 -16v-168q0 -27 -16 -27h-49q-33 0 -43 4q-27 4 -29 17l2 172q-4 14 -24 18h-252q-29 0 -29 12zM1004 289q-10 -16 8 -17h125q24 1 24 11v172q0 16 -2 24q0 12 -8 4z" />
<glyph unicode="&#xbd;" horiz-adv-x="1464" d="M100 1149q145 88 211 166q4 4 29 6t43 -2q16 -2 16 -33v-565q0 -23 6.5 -31t26.5 -10h31q18 2 26.5 0t15.5 -10.5t7 -26.5q4 -33 -14 -33q-170 6 -332 0q-18 0 -19 33q4 33 17 33l80 4q18 2 18 39v405q0 8 -1 14.5t-6 11.5t-15 1q-12 -8 -45 -25q-41 -16 -64 -26 q-20 0 -30.5 18.5t-0.5 30.5zM189 -50q1 7 4 9l974 1380q8 12 21 13h12h70q8 0 11 -9.5t-3 -21.5l-971 -1374q-8 -14 -26 -17h-15h-55q-10 0 -16.5 6.5t-5.5 13.5zM872 2v31q55 66 170 162q127 106 164 161q43 59 43 117q0 49 -35.5 83t-91.5 34q-119 0 -164 -135 q-4 -10 -37.5 -10.5t-33.5 12.5q10 109 85 173t183 64q104 0 177 -58t73 -149q0 -25 -6 -47t-12.5 -38.5t-22.5 -37t-25.5 -30.5t-33 -29.5t-31.5 -26t-37 -27t-35 -24.5q-72 -47 -151 -116q-10 -6 4 -11q12 -4 22 -4h176q66 0 78 8q6 6 12 21q8 33 11 43q2 12 24 12h15 q37 0 37 -14q-27 -166 -29 -166h2q-6 -14 -33 -14h-475q-23 0 -23 16z" />
<glyph unicode="&#xbe;" horiz-adv-x="1464" d="M35 692q0 25 20.5 42.5t46.5 17.5q29 0 101 -52q43 -31 80 -30q55 0 99 48t44 116q0 53 -29.5 87.5t-70.5 34.5q-35 0 -72 -26q-20 -20 -35 -4q-10 10 -18 26q-10 20 8 31q156 98 156 164q0 31 -25 51.5t-64 20.5q-88 0 -141 -105q-8 -10 -43 0t-26 29q35 82 102.5 128 t148.5 46q76 0 130.5 -38t54.5 -99q0 -63 -68 -121q-18 -12 2 -17q135 -43 135 -182q0 -106 -100 -185t-229 -79q-78 0 -142.5 26.5t-64.5 69.5zM194.5 -55.5q-4.5 14.5 2.5 18.5l970 1376q8 12 47 13h43q12 0 17.5 -14.5t-2.5 -24.5l-965 -1366q-14 -18 -39 -19l-55 2 q-14 0 -18.5 14.5zM799 197v2v2v28l362 463q33 10 58 4q23 -4 20 -24v-389q0 -10 21 -11h81q16 0 23 -16q6 -15 6 -33q0 -47 -18 -47h-92q-16 -4 -21 -16l2 -168q-6 -27 -20 -27h-52q-35 0 -47 4q-18 2 -20 17l2 172q-6 16 -25 18h-252q-10 0 -20 6t-8 15zM944 278.5 q2 -6.5 8 -6.5h131q21 1 21 11v192q0 12 -2 14q-4 2 -8 -6l-148 -194q-4 -4 -2 -10.5z" />
<glyph unicode="&#xbf;" horiz-adv-x="759" d="M82 -115q0 201 145 303q53 37 148 72q86 33 86 88q0 33 -14.5 59.5t-65.5 86.5q-18 20 4 30q14 6 34.5 2t29.5 -16q106 -131 106 -229q0 -74 -38 -118t-126 -79q-137 -51 -186 -100.5t-49 -131t53 -129t151 -47.5q31 0 82.5 7.5t77.5 7.5q135 0 135 -88q0 -113 -196 -113 q-168 0 -272.5 109.5t-104.5 285.5zM303 776q0 47 35 80t86 33t86 -32t35 -81q0 -51 -35 -84t-86 -33q-53 0 -87 33t-34 84z" />
<glyph unicode="&#xc0;" horiz-adv-x="1456" d="M29 55q2 12 18 13q92 0 119 30q14 16 41 78q25 61 33 84l385 1047l-15 53q-2 4 1 7t9.5 5t13.5 3t16 1h15.5h14.5h6q92 0 107 -20q106 -281 191 -505t132 -349t60 -160q20 -53 57 -160q27 -74 54.5 -97.5t94.5 -23.5h15q12 0 17 -17t0 -34.5t-17 -17.5q-236 10 -549 2 q-16 0 -23 16q-2 6 -2 25q0 20 8.5 26.5t28.5 6.5h94q63 2 80 27.5t-6 82.5q-25 66 -70 187.5t-69 187.5q-4 12 -23.5 20.5t-34.5 6.5q-109 -6 -319 0q-10 0 -16.5 -4.5t-10.5 -7.5t-9 -11t-7 -12q-53 -174 -131 -355q-16 -39 -16 -69q0 -53 116 -55q14 0 36 2t40 0 q14 -2 14 -39q-4 -35 -16 -35q-340 6 -442 0h-23q-31 6 -18 61zM510 1763q-10 10 1 24.5t30 14.5l155 2q31 0 39 -16q54 -139 103 -334q0 -18 -20.5 -22.5t-33.5 8.5q-109 141 -274 323zM535 727q-4 -18 24 -31q129 -4 248 0q10 0 15 9.5t1 21.5q-68 188 -125 373 q-4 10 -13 13t-13 -7q-39 -127 -137 -379z" />
<glyph unicode="&#xc1;" horiz-adv-x="1456" d="M29 55q2 12 18 13q92 0 119 30q14 16 41 78q25 61 33 84l385 1047l-15 53q-2 4 1 7t9.5 5t13.5 3t16 1h15.5h14.5h6q92 0 107 -20q106 -281 191 -505t132 -349t60 -160q20 -53 57 -160q27 -74 54.5 -97.5t94.5 -23.5h15q12 0 17 -17t0 -34.5t-17 -17.5q-236 10 -549 2 q-16 0 -23 16q-2 6 -2 25q0 20 8.5 26.5t28.5 6.5h94q63 2 80 27.5t-6 82.5q-25 66 -70 187.5t-69 187.5q-4 12 -23.5 20.5t-34.5 6.5q-109 -6 -319 0q-10 0 -16.5 -4.5t-10.5 -7.5t-9 -11t-7 -12q-53 -174 -131 -355q-16 -39 -16 -69q0 -53 116 -55q14 0 36 2t40 0 q14 -2 14 -39q-4 -35 -16 -35q-340 6 -442 0h-23q-31 6 -18 61zM535 727q-4 -18 24 -31q129 -4 248 0q10 0 15 9.5t1 21.5q-68 188 -125 373q-4 10 -13 13t-13 -7q-39 -127 -137 -379zM608 1448l103 336q6 27 37 26l180 2q8 0 15 -2t11 -6t2 -12q0 -8 -2 -10l-292 -352 q-10 -12 -35 -8.5t-19 26.5z" />
<glyph unicode="&#xc2;" horiz-adv-x="1456" d="M29 55q2 12 20 13q90 0 117 30q18 20 43 78q2 6 31 84l385 1047l-15 53q-2 4 1 7t9.5 5t13.5 3t16 1h15.5h14.5h8q92 0 105 -20q106 -281 191 -505t132 -349t60 -160q41 -106 59 -160q27 -74 53.5 -97.5t93.5 -23.5h15q12 0 17 -17t0 -34.5t-17 -17.5q-236 10 -547 2 q-18 0 -25 16q-2 6 -2 25q0 20 8.5 26.5t28.5 6.5h96q61 2 78 27.5t-6 82.5q-25 66 -70 187.5t-69 187.5q-4 12 -23.5 20.5t-34.5 6.5q-106 -6 -319 0q-8 0 -15.5 -4.5t-10.5 -7.5t-9 -12t-8 -11q-45 -145 -129 -355q-18 -45 -18 -69q0 -27 26.5 -40t91.5 -15q8 0 35 2t39 0 q14 -2 14 -39q-4 -35 -14 -35q-342 6 -444 0h-23q-31 6 -18 61zM434 1442l182 319q8 12 27 21q12 2 72.5 3t81.5 -1q27 -2 34 -21l181 -311q14 -25 -2 -27q-29 -8 -41 5l-250 212l-236 -212q-18 -16 -43 -3q-10 6 -6 15zM535 727q-4 -18 24 -31q129 -4 248 0q10 0 15 9.5 t1 21.5q-68 188 -125 373q-2 10 -12 13t-14 -7q-39 -127 -137 -379z" />
<glyph unicode="&#xc3;" horiz-adv-x="1456" d="M29 55q2 12 18 13q92 0 119 30q14 16 41 78q25 61 33 84l385 1047l-15 53q-2 4 1 7t9.5 5t13.5 3t16 1h15.5h14.5h6q92 0 107 -20q106 -281 191 -505t132 -349t60 -160q20 -53 57 -160q27 -74 54.5 -97.5t94.5 -23.5h15q12 0 17 -17t0 -34.5t-17 -17.5q-236 10 -549 2 q-16 0 -23 16q-2 6 -2 25q0 20 8.5 26.5t28.5 6.5h94q63 2 80 27.5t-6 82.5q-25 66 -70 187.5t-69 187.5q-4 12 -23.5 20.5t-34.5 6.5q-109 -6 -319 0q-10 0 -16.5 -4.5t-10.5 -7.5t-9 -11t-7 -12q-53 -174 -131 -355q-16 -39 -16 -69q0 -53 116 -55q14 0 36 2t40 0 q14 -2 14 -39q-4 -35 -16 -35q-340 6 -442 0h-23q-31 6 -18 61zM373 1434q12 276 200 276q82 0 201 -82q82 -55 121 -55q35 0 52.5 27.5t29.5 107.5q0 12 27 12q25 4 24 -12q4 -13 4 -27q0 -111 -57 -182.5t-146 -71.5q-82 0 -198 80q-84 59 -121 60q-31 0 -47.5 -20.5 t-28.5 -76.5q0 -4 -2 -15t-4 -21q-6 -14 -28.5 -16.5t-26.5 16.5zM535 727q-4 -18 24 -31q129 -4 248 0q10 0 15 9.5t1 21.5q-68 188 -125 373q-4 10 -13 13t-13 -7q-39 -127 -137 -379z" />
<glyph unicode="&#xc4;" horiz-adv-x="1456" d="M29 55q2 12 18 13q92 0 119 30q14 16 41 78q25 61 33 84l385 1047l-15 53q-2 4 1 7t9.5 5t13.5 3t16 1h15.5h14.5h6q92 0 107 -20q106 -281 191 -505t132 -349t60 -160q20 -53 57 -160q27 -74 54.5 -97.5t94.5 -23.5h15q12 0 17 -17t0 -34.5t-17 -17.5q-236 10 -549 2 q-16 0 -23 16q-2 6 -2 25q0 20 8.5 26.5t28.5 6.5h94q63 2 80 27.5t-6 82.5q-25 66 -70 187.5t-69 187.5q-4 12 -23.5 20.5t-34.5 6.5q-109 -6 -319 0q-10 0 -16.5 -4.5t-10.5 -7.5t-9 -11t-7 -12q-53 -174 -131 -355q-16 -39 -16 -69q0 -53 116 -55q14 0 36 2t40 0 q14 -2 14 -39q-4 -35 -16 -35q-340 6 -442 0h-23q-31 6 -18 61zM422 1564.5q0 51.5 36 87.5t87 36t88 -36t37 -87.5t-37 -87t-88 -35.5t-87 35.5t-36 87zM535 727q-4 -18 24 -31q129 -4 248 0q10 0 15 9.5t1 21.5q-68 188 -125 373q-4 10 -13 13t-13 -7q-39 -127 -137 -379z M784 1564.5q0 51.5 36 87.5t87 36q53 0 89 -36t36 -87.5t-35.5 -87t-89.5 -35.5q-51 0 -87 35.5t-36 87z" />
<glyph unicode="&#xc5;" horiz-adv-x="1456" d="M29 55q2 12 18 13q92 0 119 30q14 16 41 78q25 61 33 84l385 1047l-15 53q-2 4 1 7t9.5 5t13.5 3t16 1h15.5h14.5h6q92 0 107 -20q106 -281 191 -505t132 -349t60 -160q20 -53 57 -160q27 -74 54.5 -97.5t94.5 -23.5h15q12 0 17 -17t0 -34.5t-17 -17.5q-236 10 -549 2 q-16 0 -23 16q-2 6 -2 25q0 20 8.5 26.5t28.5 6.5h94q63 2 80 27.5t-6 82.5q-25 66 -70 187.5t-69 187.5q-4 12 -23.5 20.5t-34.5 6.5q-109 -6 -319 0q-10 0 -16.5 -4.5t-10.5 -7.5t-9 -11t-7 -12q-53 -174 -131 -355q-16 -39 -16 -69q0 -53 116 -55q14 0 36 2t40 0 q14 -2 14 -39q-4 -35 -16 -35q-340 6 -442 0h-23q-31 6 -18 61zM504 1624q0 88 61.5 149.5t149.5 61.5q84 0 145.5 -61.5t61.5 -149.5t-61.5 -149.5t-145.5 -61.5q-88 0 -149.5 61.5t-61.5 149.5zM535 727q-4 -18 24 -31q129 -4 248 0q10 0 15 9.5t1 21.5q-68 188 -125 373 q-4 10 -13 13t-13 -7q-39 -127 -137 -379zM600 1624q0 -47 34 -81t81 -34q45 0 77.5 34t32.5 81t-32.5 81t-77.5 34q-47 0 -81 -34t-34 -81z" />
<glyph unicode="&#xc6;" horiz-adv-x="1873" d="M-115 48q4 9 33 11q68 8 112 46t109 147l510 852q53 88 58 98q8 14 8 33q0 29 -19.5 39t-87.5 10q-16 0 -23 3t-5 13l2 29q4 18 26 19q145 -4 550 -1t480 1q51 0 52 -25q2 -41 9 -138.5t9 -125.5v-19q0 -8 -10 -8h-31q-6 0 -11 3t-8 10.5t-5.5 11.5t-4.5 13t-2 11 q-20 96 -45.5 131t-70.5 35h-58h-323q-51 0 -52 -37v-434q0 -33 46 -33l237 5q37 0 78 4q31 2 47 14q31 23 47 115q6 23 23 22h10h12h6q18 0 19 -31q0 -322 2 -368q2 -29 -17 -29q-16 -6 -34 -2q-16 0 -19 25q-12 100 -40.5 123.5t-129.5 21.5l-248 -4q-39 0 -39 -53v-342 q0 -104 27 -128t125 -24q45 -4 213 0q100 4 134 14.5t65 49.5q47 61 69 149q0 2 1 7t3 7v5q0 4 2 4q0 6 17 6h26q21 0 21 -39q-2 -47 -27 -266q-2 -37 -59 -37h-1059q-33 0 -31 22v21q0 29 48 28l63 -2q160 -6 162 142l2 73v207q0 37 -29 37h-395q-27 0 -41 -24l-166 -273 q-47 -78 -47 -108q0 -57 131 -58q25 0 25 -18l2 -29q2 -12 -4.5 -17t-20.5 -5q-33 0 -129 2t-176 2t-127 -4q-20 0 -23 24q-8 27 -4 36zM516 651q-8 -10 1 -19t32 -9h305q35 0 35 55v516q0 33 -12 43q-6 4 -15 -8q-143 -219 -346 -578z" />
<glyph unicode="&#xc7;" horiz-adv-x="1560" d="M115 649q0 315 208.5 514t544.5 199q147 0 336 -70q72 -27 101 -4q8 6 27.5 6t21.5 -8q25 -104 20 -184q0 -18 -2 -60.5t0 -64.5q-4 -18 -28.5 -23.5t-32.5 7.5q-53 154 -163 239.5t-267 85.5q-248 0 -393.5 -161.5t-145.5 -432.5q0 -279 160 -463t407 -184 q182 0 334 135q41 37 62.5 65.5t60.5 98.5q4 18 43 14q25 -4 23 -16q-49 -170 -144 -328q-27 6 -47 6q-61 0 -160 -30q-94 -29 -227 -29l-53 -98q-4 -8 -4 -13q2 -2 6 -3t6 -1q59 -8 98 -54t39 -109q0 -80 -56 -136.5t-136 -56.5q-47 0 -86 14q-23 8 -9 31q6 12 9 14 q4 12 18 9q31 -6 45 -7q43 0 73 29t30 68q0 74 -58 73q-29 0 -129 -51q-8 -4 -15 -1t-1 14l166 280q-305 14 -493.5 205.5t-188.5 480.5z" />
<glyph unicode="&#xc8;" horiz-adv-x="1267" d="M50 45q5 23 19.5 25t88.5 2q100 4 125.5 37.5t25.5 164.5v779q0 131 -25.5 169t-133.5 38h-9.5h-9.5h-9t-8 1t-7.5 3t-8.5 6t-6 8q-6 12 8 43q6 10 35 10q670 4 914 0q39 0 38 -20q8 -66 11.5 -121t4.5 -99t3 -61q-4 -20 -49 -6q-14 2 -15 23q-20 125 -57 156.5 t-164 33.5q-197 6 -274 2q-12 0 -25.5 -16.5t-13.5 -28.5v-414q0 -16 9 -29.5t20 -13.5h241q121 0 147.5 20.5t41.5 131.5q4 14 45 10q10 -2 16 -31q4 -100 -2 -364q0 -27 -25 -29q-35 -4 -36 10q-16 106 -44 129t-149 23h-235q-29 -4 -29 -31v-344q0 -119 21.5 -142.5 t132.5 -23.5h163q115 0 155 9.5t67 39.5q49 59 75 166q4 18 21 23q37 4 43 -8q0 -66 -6 -124.5t-13.5 -112.5t-9.5 -64q-4 -29 -82 -29q-729 0 -999 -2q-20 4 -25 14q-6 14 -1 37zM422 1763q-8 10 2 24.5t29 14.5l157 2q29 0 39 -16q66 -184 101 -334q0 -18 -20.5 -22.5 t-31.5 8.5q-115 152 -276 323z" />
<glyph unicode="&#xc9;" horiz-adv-x="1267" d="M50 45q5 23 19.5 25t88.5 2q100 4 125.5 37.5t25.5 164.5v779q0 131 -25.5 169t-133.5 38h-9.5h-9.5h-9t-8 1t-7.5 3t-8.5 6t-6 8q-6 12 8 43q6 10 35 10q670 4 914 0q39 0 38 -20q8 -66 11.5 -121t4.5 -99t3 -61q-4 -20 -49 -6q-14 2 -15 23q-20 125 -57 156.5 t-164 33.5q-197 6 -274 2q-12 0 -25.5 -16.5t-13.5 -28.5v-414q0 -16 9 -29.5t20 -13.5h241q121 0 147.5 20.5t41.5 131.5q4 14 45 10q10 -2 16 -31q4 -100 -2 -364q0 -27 -25 -29q-35 -4 -36 10q-16 106 -44 129t-149 23h-235q-29 -4 -29 -31v-344q0 -119 21.5 -142.5 t132.5 -23.5h163q115 0 155 9.5t67 39.5q49 59 75 166q4 18 21 23q37 4 43 -8q0 -66 -6 -124.5t-13.5 -112.5t-9.5 -64q-4 -29 -82 -29q-729 0 -999 -2q-20 4 -25 14q-6 14 -1 37zM522 1448l101 336q6 27 36 26l183 2q8 0 14 -2t10 -6t4 -12q0 -2 -1 -5t-3 -5l-293 -352 q-10 -12 -33.5 -8.5t-17.5 26.5z" />
<glyph unicode="&#xca;" horiz-adv-x="1267" d="M50 45q5 23 19.5 25t88.5 2q100 4 125.5 37.5t25.5 164.5v779q0 131 -25.5 169t-133.5 38h-9.5h-9.5h-9t-8 1t-7.5 3t-8.5 6t-6 8q-6 12 8 43q6 10 35 10q670 4 914 0q39 0 38 -20q8 -66 11.5 -121t4.5 -99t3 -61q-4 -20 -49 -6q-14 2 -15 23q-20 125 -57 156.5 t-164 33.5q-197 6 -274 2q-12 0 -25.5 -16.5t-13.5 -28.5v-414q0 -16 9 -29.5t20 -13.5h241q121 0 147.5 20.5t41.5 131.5q4 14 45 10q10 -2 16 -31q4 -100 -2 -364q0 -27 -25 -29q-35 -4 -36 10q-16 106 -44 129t-149 23h-235q-29 -4 -29 -31v-344q0 -119 21.5 -142.5 t132.5 -23.5h163q115 0 155 9.5t67 39.5q49 59 75 166q4 18 21 23q37 4 43 -8q0 -66 -6 -124.5t-13.5 -112.5t-9.5 -64q-4 -29 -82 -29q-729 0 -999 -2q-20 4 -25 14q-6 14 -1 37zM348 1442l180 319q8 12 27 21q12 2 72.5 3t81.5 -1q27 -2 34 -21l181 -311q14 -25 -2 -27 q-29 -8 -41 5l-250 212l-236 -212q-18 -16 -43 -3q-8 6 -4 15z" />
<glyph unicode="&#xcb;" horiz-adv-x="1267" d="M50 45q5 23 19.5 25t88.5 2q100 4 125.5 37.5t25.5 164.5v779q0 131 -25.5 169t-133.5 38h-9.5h-9.5h-9t-8 1t-7.5 3t-8.5 6t-6 8q-6 12 8 43q6 10 35 10q670 4 914 0q39 0 38 -20q8 -66 11.5 -121t4.5 -99t3 -61q-4 -20 -49 -6q-14 2 -15 23q-20 125 -57 156.5 t-164 33.5q-197 6 -274 2q-12 0 -25.5 -16.5t-13.5 -28.5v-414q0 -16 9 -29.5t20 -13.5h241q121 0 147.5 20.5t41.5 131.5q4 14 45 10q10 -2 16 -31q4 -100 -2 -364q0 -27 -25 -29q-35 -4 -36 10q-16 106 -44 129t-149 23h-235q-29 -4 -29 -31v-344q0 -119 21.5 -142.5 t132.5 -23.5h163q115 0 155 9.5t67 39.5q49 59 75 166q4 18 21 23q37 4 43 -8q0 -66 -6 -124.5t-13.5 -112.5t-9.5 -64q-4 -29 -82 -29q-729 0 -999 -2q-20 4 -25 14q-6 14 -1 37zM348 1565q0 47 34 81.5t83 34.5q47 0 82 -34.5t35 -81.5q0 -49 -34 -83t-83 -34t-83 34 t-34 83zM692 1565q0 47 35 81.5t82 34.5q51 0 85 -33.5t34 -82.5t-34 -83t-85 -34q-47 0 -82 35t-35 82z" />
<glyph unicode="&#xcc;" horiz-adv-x="743" d="M106 25q0 39 19 38q94 8 116.5 32t26.5 108l2 71v779l-2 71q-2 82 -24.5 109t-104.5 35q-37 4 -22 51q6 14 28 14q8 0 205 -5t266 5q31 1 33 -22q6 -43 -10 -45q-4 0 -13.5 -1t-15.5 -1q-94 -2 -117.5 -36t-23.5 -175v-850q0 -80 28.5 -106.5t112.5 -28.5q23 0 31 -2 q12 -8 14 -25.5t-3 -32t-13 -14.5q-254 8 -508 0q-25 0 -25 31zM143 1763q-10 10 0.5 24.5t28.5 14.5l158 2q29 0 39 -16q59 -156 100 -334q2 -18 -18.5 -22.5t-32.5 8.5q-109 141 -275 323z" />
<glyph unicode="&#xcd;" horiz-adv-x="743" d="M106 25q0 39 19 38q94 8 116.5 32t26.5 108l2 71v779l-2 71q-2 82 -24.5 109t-104.5 35q-37 4 -22 51q6 14 28 14q10 0 206 -5t265 5q31 1 33 -22q6 -43 -10 -45q-4 0 -13.5 -1t-15.5 -1q-94 -2 -117.5 -36t-23.5 -175v-850q0 -80 28.5 -106.5t112.5 -28.5q23 0 31 -2 q12 -8 14 -25.5t-3 -32t-13 -14.5q-254 8 -508 0q-25 0 -25 31zM242 1448l100 336q14 27 39 26l180 2q8 0 15.5 -2t11.5 -6t2 -12v-6l-2 -4l-293 -352q-10 -12 -34.5 -8.5t-18.5 26.5z" />
<glyph unicode="&#xce;" horiz-adv-x="741" d="M68 1442l180 319q8 12 26 21q12 2 73 3t81 -1q27 -2 35 -21l180 -311q14 -25 -2 -27q-29 -8 -41 5l-250 212l-235 -212q-18 -16 -43 -3q-8 6 -4 15zM104 25q0 12 6.5 25t12.5 13q96 8 118.5 32t26.5 108l2 71v779l-2 71q-2 82 -24.5 109t-106.5 35q-37 4 -22 51 q6 14 28 14q8 0 205 -5t268 5q31 1 33 -22q6 -41 -10 -45q-6 0 -15.5 -1t-13.5 -1q-94 -2 -118.5 -37t-24.5 -174v-850q0 -80 29.5 -106.5t111.5 -28.5q23 0 31 -2q12 -8 15 -25.5t-2 -32t-13 -14.5q-256 8 -508 0q-27 0 -27 31z" />
<glyph unicode="&#xcf;" horiz-adv-x="743" d="M55 1564.5q0 51.5 36 87.5t87 36t87 -36t36 -87.5t-36 -87t-87 -35.5t-87 35.5t-36 87zM106 25q0 39 19 38q94 8 116.5 32t26.5 108l2 71v779l-2 71q-2 82 -24.5 109t-104.5 35q-37 4 -22 51q6 14 28 14q8 0 205 -5t266 5q31 1 33 -22q6 -43 -10 -45q-4 0 -13.5 -1 t-15.5 -1q-94 -2 -117.5 -36t-23.5 -175v-850q0 -80 28.5 -106.5t112.5 -28.5q23 0 31 -2q12 -8 14 -25.5t-3 -32t-13 -14.5q-254 8 -508 0q-25 0 -25 31zM418 1564.5q0 51.5 35.5 87.5t87.5 36q53 0 89 -36t36 -87.5t-36 -87t-89 -35.5q-51 0 -87 35.5t-36 87z" />
<glyph unicode="&#xd0;" horiz-adv-x="1628" d="M0 635v72q0 31 39 30h162q16 0 22 6q14 6 15 33v291q0 150 -28 179.5t-153 29.5q-31 0 -30 37q0 35 30 41l168 6q154 6 463 6q203 0 340 -34t246 -113q248 -182 248 -504q0 -233 -143.5 -426t-366.5 -256q-104 -31 -169 -37t-272 -6q-449 0 -522 -2q-8 -2 -16 4t-8 14 q0 41 4 47q8 16 16 17h6h6q2 0 9.5 -1t11.5 -1q92 0 123.5 25.5t34.5 107.5q2 20 2 43.5v42.5v284q0 31 -37 31l-174 -2q-27 4 -27 35zM436 193q0 -100 22.5 -120t145.5 -20q143 0 216 11.5t147 46.5q152 70 241.5 225.5t89.5 343.5q0 156 -56 286t-155 208 q-119 92 -339 114q-111 12 -195 12q-59 0 -86 -2q-31 -12 -31 -47v-479q0 -35 39 -35l293 2q45 0 45 -37v-61q-10 -37 -43 -37l-297 -2q-37 0 -37 -39v-370z" />
<glyph unicode="&#xd1;" horiz-adv-x="1708" d="M70 17.5q-4 27.5 6 37.5q10 14 30 15q158 0 158 118v1035q-55 41 -166 43q-8 -2 -12 9t-4 25q0 33 33 33q170 -4 293 0q29 0 49 -24l837 -959q12 -18 31 12q4 8 4 17v676q0 61 -1 87.5t-7 51.5t-18 37q-18 18 -58 24q-33 4 -112 9q-12 0 -18.5 18t-1.5 34.5t20 16.5 q150 -6 503 2q4 0 7.5 -8t4.5 -18.5t1 -12.5q2 -20 -4.5 -25t-24.5 -5q-119 -4 -144.5 -31t-25.5 -145v-1082q0 -27 -36 -31t-42 11q-14 14 -489 555l-475 540q-6 4 -11.5 0t-8.5 -15t-3 -28v-755q0 -104 12 -140q20 -66 99 -71q14 -2 34.5 0t43 -2t26.5 -13q10 -18 5 -41.5 t-30 -23.5q-334 6 -485 -2q-16 -2 -20 25.5zM553 1434q12 276 201 276q82 0 200 -82q82 -55 121 -55q35 0 52.5 27.5t29.5 107.5q0 12 27 12q25 4 24 -12q4 -13 4 -27q0 -111 -57 -182.5t-145 -71.5q-82 0 -199 80q-84 59 -121 60q-31 0 -47 -20.5t-29 -76.5q0 -4 -2 -15 t-4 -21q-6 -14 -28.5 -16.5t-26.5 16.5z" />
<glyph unicode="&#xd2;" horiz-adv-x="1693" d="M109 639q0 313 207.5 520t533.5 207q319 0 522 -190.5t203 -481.5q0 -311 -208 -522t-521 -211q-319 0 -528 194.5t-209 483.5zM330 692q0 -281 155.5 -468t395.5 -187q131 0 225 48t147.5 134t77 188.5t23.5 225.5q0 289 -155 474t-406 185q-211 0 -337 -167t-126 -433z M666 1763q-10 10 1 24.5t29 14.5l156 2q31 0 39 -16q53 -139 102 -334q0 -18 -20.5 -22.5t-32.5 8.5q-109 141 -274 323z" />
<glyph unicode="&#xd3;" horiz-adv-x="1693" d="M109 639q0 313 207.5 520t533.5 207q319 0 522 -190.5t203 -481.5q0 -311 -208 -522t-521 -211q-319 0 -528 194.5t-209 483.5zM330 692q0 -281 155.5 -468t395.5 -187q131 0 225 48t147.5 134t77 188.5t23.5 225.5q0 289 -155 474t-406 185q-211 0 -337 -167t-126 -433z M766 1448l100 336q6 27 37 26l180 2q8 0 15.5 -2t11.5 -6t2 -12q0 -8 -2 -10l-293 -352q-10 -12 -33.5 -8.5t-17.5 26.5z" />
<glyph unicode="&#xd4;" horiz-adv-x="1693" d="M109 639q0 313 207.5 520t531.5 207q319 0 523 -190.5t204 -481.5q0 -311 -208 -522t-523 -211q-319 0 -527 194.5t-208 483.5zM330 692q0 -281 155.5 -468t395.5 -187q131 0 225 48t147.5 134t77 188.5t23.5 225.5q0 289 -155 474t-406 185q-211 0 -337 -167t-126 -433z M590 1442l182 319q8 12 27 21q12 2 72.5 3t80.5 -1q23 -2 35 -21l178 -311q14 -25 0 -27q-33 -8 -41 5l-250 212l-235 -212q-18 -16 -43 -3q-10 6 -6 15z" />
<glyph unicode="&#xd5;" horiz-adv-x="1693" d="M109 639q0 313 207.5 520t533.5 207q319 0 522 -190.5t203 -481.5q0 -311 -208 -522t-521 -211q-319 0 -528 194.5t-209 483.5zM330 692q0 -281 155.5 -468t395.5 -187q131 0 225 48t147.5 134t77 188.5t23.5 225.5q0 289 -155 474t-406 185q-211 0 -337 -167t-126 -433z M502 1434q12 276 200 276q82 0 201 -82q82 -55 121 -55q35 0 52.5 27.5t29.5 107.5q0 12 27 12q25 4 24 -12q4 -13 4 -27q0 -111 -57 -182.5t-146 -71.5q-82 0 -198 80q-84 59 -121 60q-31 0 -47.5 -20.5t-28.5 -76.5q0 -4 -2 -15t-4 -21q-6 -14 -28.5 -16.5t-26.5 16.5z " />
<glyph unicode="&#xd6;" horiz-adv-x="1693" d="M109 639q0 313 207.5 520t533.5 207q319 0 522 -190.5t203 -481.5q0 -311 -208 -522t-521 -211q-319 0 -528 194.5t-209 483.5zM330 692q0 -281 155.5 -468t395.5 -187q131 0 225 48t147.5 134t77 188.5t23.5 225.5q0 289 -155 474t-406 185q-211 0 -337 -167t-126 -433z M543 1564.5q0 51.5 36.5 87.5t88 36t87.5 -36t36 -87.5t-36 -87t-87.5 -35.5t-88 35.5t-36.5 87zM907 1564.5q0 51.5 36 87.5t87 36t88 -36t37 -87.5t-37 -87t-88 -35.5t-87 35.5t-36 87z" />
<glyph unicode="&#xd7;" horiz-adv-x="1431" d="M223 227q-33 29 0 60l371 370q31 31 2 62l-360 364q-43 43 -13 72l43 43q27 27 53 0q158 -152 371 -379q23 -20 36 -19t40 23q137 127 342 357q10 14 34.5 20t31.5 0l53 -47q27 -27 -2 -57q-33 -31 -182.5 -183.5t-196.5 -195.5q-33 -25 -4 -53l372 -371q39 -39 9 -64 l-45 -36q-35 -29 -60 -5l-352 359q-43 47 -92 -6q-100 -111 -342 -344q-37 -37 -74 -2z" />
<glyph unicode="&#xd8;" horiz-adv-x="1742" d="M102 649.5q0 311.5 225.5 522t557.5 210.5q246 0 438 -116q20 -12 43 12l125 152q16 16 37 2l16 -13q20 -14 -8 -47l-121 -137q-16 -18 8 -41q226 -195 226 -494q0 -315 -222.5 -529t-547.5 -214q-227 0 -426 109q-35 18 -60 -11l-153 -182q-23 -27 -39 -12l-8 4 q-6 6 -7.5 8t-6.5 6t-5 7t-1 7.5t1 9.5t6 9l160 178q12 12 12 26.5t-8 20.5q-242 201 -242 512.5zM326 700q0 -240 123 -415q27 -37 53 -6q414 506 710 831q32 26 5 49q-162 150 -392 150q-217 0 -358 -171t-141 -438zM547 225q-23 -29 6 -57q162 -137 362 -137 q252 0 392 202q118 169 118 402q0 250 -122 428q-16 23 -41 -6q-98 -113 -367.5 -427.5t-347.5 -404.5z" />
<glyph unicode="&#xd9;" horiz-adv-x="1669" d="M48 1314.5q3 16.5 18 16.5q43 4 234.5 4t317.5 -4q12 0 16.5 -17.5t-0.5 -33.5t-16 -14h-20q-90 0 -121 -29t-35 -113q0 -14 -1 -44.5t-1 -45.5v-399q0 -250 96.5 -394.5t333.5 -144.5q305 0 396 244q33 86 32 283v370q0 172 -32.5 220.5t-151.5 50.5l-14 4 q-16 0 -19.5 31.5t19.5 31.5q227 4 506 0q18 0 18 -30.5t-18 -32.5q-119 -4 -154 -52.5t-35 -214.5v-376q0 -100 -3 -152.5t-18.5 -124.5t-52 -127t-98.5 -108q-92 -82 -184 -117t-238 -35q-393 0 -534 307q-31 70 -39 128.5t-8 207.5v533q0 84 -30 105.5t-146 23.5 q-10 0 -15.5 16t-2.5 32.5zM633 1763q-8 10 2 24.5t29 14.5l157 2q29 0 39 -16q60 -156 101 -334q0 -18 -20.5 -22.5t-31.5 8.5q-115 152 -276 323z" />
<glyph unicode="&#xda;" horiz-adv-x="1669" d="M48 1314.5q3 16.5 18 16.5q43 4 234.5 4t317.5 -4q12 0 16.5 -17.5t-0.5 -33.5t-16 -14h-20q-90 0 -121 -29t-35 -113q0 -14 -1 -44.5t-1 -45.5v-399q0 -250 96.5 -394.5t333.5 -144.5q305 0 396 244q33 86 32 283v370q0 172 -32.5 220.5t-151.5 50.5l-14 4 q-16 0 -19.5 31.5t19.5 31.5q227 4 506 0q18 0 18 -30.5t-18 -32.5q-119 -4 -154 -52.5t-35 -214.5v-376q0 -100 -3 -152.5t-18.5 -124.5t-52 -127t-98.5 -108q-92 -82 -184 -117t-238 -35q-393 0 -534 307q-31 70 -39 128.5t-8 207.5v533q0 84 -30 105.5t-146 23.5 q-10 0 -15.5 16t-2.5 32.5zM733 1448l101 336q6 27 36 26l183 2q8 0 14 -2t10 -6t4 -12v-6l-2 -4l-295 -352q-10 -12 -33.5 -8.5t-17.5 26.5z" />
<glyph unicode="&#xdb;" horiz-adv-x="1669" d="M48 1314.5q3 16.5 18 16.5q43 4 234.5 4t317.5 -4q12 0 16.5 -17.5t-0.5 -33.5t-16 -14h-20q-90 0 -121 -29t-35 -113q0 -14 -1 -44.5t-1 -45.5v-399q0 -250 96.5 -394.5t333.5 -144.5q305 0 396 244q33 86 32 283v370q0 172 -32.5 220.5t-151.5 50.5l-14 4 q-16 0 -19.5 31.5t19.5 31.5q227 4 506 0q18 0 18 -30.5t-18 -32.5q-119 -4 -154 -52.5t-35 -214.5v-376q0 -100 -3 -152.5t-18.5 -124.5t-52 -127t-98.5 -108q-92 -82 -184 -117t-238 -35q-393 0 -534 307q-31 70 -39 128.5t-8 207.5v533q0 84 -30 105.5t-146 23.5 q-10 0 -15.5 16t-2.5 32.5zM559 1442l180 319q8 12 27 21q12 2 72.5 3t83.5 -1q25 -2 32 -21l181 -311q14 -25 -2 -27q-29 -8 -41 5l-250 212l-236 -212q-16 -16 -41 -3q-10 6 -6 15z" />
<glyph unicode="&#xdc;" horiz-adv-x="1669" d="M48 1314.5q3 16.5 18 16.5q43 4 234.5 4t317.5 -4q12 0 16.5 -17.5t-0.5 -33.5t-16 -14h-20q-90 0 -121 -29t-35 -113q0 -14 -1 -44.5t-1 -45.5v-399q0 -250 96.5 -394.5t333.5 -144.5q305 0 396 244q33 86 32 283v370q0 172 -32.5 220.5t-151.5 50.5l-14 4 q-16 0 -19.5 31.5t19.5 31.5q227 4 506 0q18 0 18 -30.5t-18 -32.5q-119 -4 -154 -52.5t-35 -214.5v-376q0 -100 -3 -152.5t-18.5 -124.5t-52 -127t-98.5 -108q-92 -82 -184 -117t-238 -35q-393 0 -534 307q-31 70 -39 128.5t-8 207.5v533q0 84 -30 105.5t-146 23.5 q-10 0 -15.5 16t-2.5 32.5zM543 1564.5q0 51.5 36.5 87.5t88 36t87.5 -36t36 -87.5t-36 -87t-87.5 -35.5t-88 35.5t-36.5 87zM905 1564.5q0 51.5 37 87.5t88 36t87 -36t36 -87.5t-36 -87t-87 -35.5t-88 35.5t-37 87z" />
<glyph unicode="&#xdd;" horiz-adv-x="1517" d="M33 1278q-4 12 0 29q4 25 22 24q395 -6 551 0q8 0 17.5 -16.5t4.5 -31.5t-28 -15q-129 0 -129 -41q0 -25 66 -127l274 -422q8 -10 26.5 -1t28.5 28l219 370q66 109 66 137q0 31 -23.5 42.5t-93.5 11.5h-20q-18 8 -16.5 36.5t22.5 28.5q178 -6 457 0q18 0 18 -31 q0 -35 -18 -34q-104 -6 -170 -74q-31 -33 -107 -160l-303 -514v-107.5v-128v-79.5q0 -59 25.5 -92t89.5 -41q8 0 32.5 1t34.5 -3q25 -6 25 -41t-25 -35q-406 6 -573 2q-16 0 -22.5 21.5t-0.5 37.5q8 20 43 21q10 2 31 0t25 -2q109 6 114 131q10 154 2 291l-374 585 q-72 113 -120 147t-143 38q-25 0 -28 14zM643 1448l100 336q14 27 37 26l183 2q8 0 14 -2t10 -6t4 -12v-6l-2 -4l-295 -352q-10 -12 -33.5 -8.5t-17.5 26.5z" />
<glyph unicode="&#xde;" horiz-adv-x="1206" d="M39 1311v18q0 20 29 21q401 -8 518 -2q31 0 30 -19v-22q0 -23 -8 -23q-2 -2 -12 -2h-21q-66 -4 -87 -10t-29 -21q-14 -23 -15 -71v-45q0 -14 12.5 -27.5t28.5 -11.5h66q164 0 291 -31q90 -23 162 -80q131 -104 131 -278q0 -195 -140.5 -308.5t-382.5 -113.5 q-84 0 -147 10q-12 2 -16.5 -6t-4.5 -19v-69q0 -84 34 -113t128 -29h43q43 -4 43 -20q4 -47 -33 -47q-303 8 -557 -2q-18 0 -26 4t-6 20q4 23 10 31q6 10 35 10q96 0 116 33q14 23 15 70v100v858q0 115 -15 139q-10 18 -45 23q-6 2 -24 2q-35 2 -47 4h-13h-28q-14 0 -19 2 q-16 4 -16 25zM444 408q0 -43 27 -50q39 -6 84 -6q160 0 259 99.5t99 261.5q0 98 -36.5 171.5t-102.5 108.5q-82 43 -211 43q-39 0 -74 -4q-45 -12 -45 -37v-587z" />
<glyph unicode="&#xdf;" horiz-adv-x="1116" d="M39 23q0 23 3 27.5t21 6.5q80 4 96.5 24.5t16.5 108.5v80v521q0 238 20.5 335t86.5 183q117 147 307 147q156 0 262 -95t106 -235q0 -104 -67.5 -189t-188.5 -138q-10 -4 -12 -7.5t1 -5.5t14 -4q117 -33 208 -120q115 -113 115 -279q0 -168 -109.5 -293t-259.5 -125 q-47 0 -77.5 21.5t-30.5 58.5q0 29 17.5 50.5t43.5 21.5q23 0 70 -29q47 -20 57 -20q41 0 73 79.5t32 204.5q0 342 -211 387q-51 10 -107 11q-20 0 -28 8q-4 6 -4 24q0 14 3 18.5t19 6.5q135 18 207 96t72 205q0 125 -63.5 200.5t-166.5 75.5q-109 0 -166 -90t-57 -274v-133 v-617v-92q0 -78 17.5 -96.5t89.5 -18.5q20 -4 26 -10t6 -30q0 -16 -2 -23q-6 -10 -18 -8q-217 8 -398 0q-14 -2 -19 5t-5 26z" />
<glyph unicode="&#xe0;" horiz-adv-x="847" d="M51 160q0 152 217 209q82 23 195 75q23 14 22 37l-2 131q-4 184 -139 185q-35 0 -76 -30t-41 -62q0 -35 6 -50q-10 -10 -58 -33.5t-64 -27.5q-27 -10 -37.5 -4t-10.5 35q0 76 130 174q104 84 192 84q66 0 130.5 -33t98.5 -84q25 -33 30 -62.5t5 -128.5v-372 q0 -61 10.5 -81t35 -20t36.5 7q25 8 49 30q10 6 19 6q30 -6 14 -51q-135 -119 -217 -119q-88 0 -107 107q-6 6 -8 6t-12 -8l-10 -8q-66 -57 -109 -77t-100 -20q-88 0 -143.5 51.5t-55.5 133.5zM209 186q0 -47 32.5 -79.5t80.5 -32.5q33 0 91 37.5t70 70.5v170q0 31 -18 23 q-47 -23 -146 -64q-111 -45 -110 -125zM211 1307q-8 10 2 24.5t29 14.5l157 2q29 0 37 -17q64 -170 103 -334q0 -18 -20.5 -22t-31.5 8q-115 152 -276 324z" />
<glyph unicode="&#xe1;" horiz-adv-x="847" d="M51 160q0 152 217 209q82 23 195 75q23 14 22 37l-2 131q-4 184 -139 185q-35 0 -76 -30t-41 -62q0 -35 6 -50q-10 -10 -58 -33.5t-64 -27.5q-27 -10 -37.5 -4t-10.5 35q0 76 130 174q104 84 192 84q66 0 130.5 -33t98.5 -84q25 -33 30 -62.5t5 -128.5v-372 q0 -61 10.5 -81t35 -20t36.5 7q25 8 49 30q10 6 19 6q30 -6 14 -51q-135 -119 -217 -119q-88 0 -107 107q-6 6 -8 6t-12 -8l-10 -8q-66 -57 -109 -77t-100 -20q-88 0 -143.5 51.5t-55.5 133.5zM209 186q0 -47 32.5 -79.5t80.5 -32.5q33 0 91 37.5t70 70.5v170q0 31 -18 23 q-47 -23 -146 -64q-111 -45 -110 -125zM311 991l101 336q6 27 37 27h182q8 0 14 -1t10 -5.5t4 -12.5q0 -2 -1 -5t-3 -5l-293 -352q-10 -12 -33.5 -8t-17.5 26z" />
<glyph unicode="&#xe2;" horiz-adv-x="847" d="M51 160q0 152 217 209q82 23 195 75q23 14 22 37l-2 131q-4 184 -139 185q-35 0 -76 -30t-41 -62q0 -35 6 -50q-10 -10 -58 -33.5t-64 -27.5q-27 -10 -37.5 -4t-10.5 35q0 76 130 174q104 84 192 84q66 0 130.5 -33t98.5 -84q25 -33 30 -62.5t5 -128.5v-372 q0 -61 10.5 -81t35 -20t36.5 7q25 8 49 30q10 6 19 6q30 -6 14 -51q-135 -119 -217 -119q-88 0 -107 107q-6 6 -8 6t-12 -8l-10 -8q-66 -57 -109 -77t-100 -20q-88 0 -143.5 51.5t-55.5 133.5zM104 985l183 320q8 12 26 20q12 2 72.5 3t81.5 -1q23 -2 35 -20l180 -312 q10 -25 -2 -26q-29 -8 -41 4l-250 213l-235 -213q-18 -16 -43 -2q-10 6 -7 14zM209 186q0 -47 32.5 -79.5t80.5 -32.5q33 0 91 37.5t70 70.5v170q0 31 -18 23q-47 -23 -146 -64q-111 -45 -110 -125z" />
<glyph unicode="&#xe3;" horiz-adv-x="847" d="M51 160q0 152 217 209q82 23 195 75q23 14 22 37l-2 131q-4 184 -139 185q-35 0 -76 -30t-41 -62q0 -35 6 -50q-10 -10 -58 -33.5t-64 -27.5q-27 -10 -37.5 -4t-10.5 35q0 76 130 174q104 84 192 84q66 0 130.5 -33t98.5 -84q25 -33 30 -62.5t5 -128.5v-372 q0 -61 10.5 -81t35 -20t36.5 7q25 8 49 30q10 6 19 6q30 -6 14 -51q-135 -119 -217 -119q-88 0 -107 107q-6 6 -8 6t-12 -8l-10 -8q-66 -57 -109 -77t-100 -20q-88 0 -143.5 51.5t-55.5 133.5zM74 967q12 276 200 276q82 0 201 -82q82 -55 121 -55q35 0 52.5 27.5 t29.5 107.5q0 12 27 12q25 4 24 -12q4 -13 4 -27q0 -111 -57.5 -182t-145.5 -71q-82 0 -198 79q-84 59 -121 60q-31 0 -47.5 -20.5t-28.5 -75.5q0 -4 -2 -15.5t-4 -21.5q-6 -14 -28.5 -16.5t-26.5 16.5zM209 186q0 -47 32.5 -79.5t80.5 -32.5q33 0 91 37.5t70 70.5v170 q0 31 -18 23q-47 -23 -146 -64q-111 -45 -110 -125z" />
<glyph unicode="&#xe4;" horiz-adv-x="847" d="M51 160q0 152 217 209q82 23 195 75q23 14 22 37l-2 131q-4 184 -139 185q-35 0 -76 -30t-41 -62q0 -35 6 -50q-10 -10 -58 -33.5t-64 -27.5q-27 -10 -37.5 -4t-10.5 35q0 76 130 174q104 84 192 84q66 0 130.5 -33t98.5 -84q25 -33 30 -62.5t5 -128.5v-372 q0 -61 10.5 -81t35 -20t36.5 7q25 8 49 30q10 6 19 6q30 -6 14 -51q-135 -119 -217 -119q-88 0 -107 107q-6 6 -8 6t-12 -8l-10 -8q-66 -57 -109 -77t-100 -20q-88 0 -143.5 51.5t-55.5 133.5zM135 1108q0 47 35 82t84 35q47 0 82 -35t35 -82q0 -49 -34 -83t-83 -34t-84 34 t-35 83zM209 186q0 -47 32.5 -79.5t80.5 -32.5q33 0 91 37.5t70 70.5v170q0 31 -18 23q-47 -23 -146 -64q-111 -45 -110 -125zM481 1108q0 47 35 82t82 35q49 0 84 -35t35 -82t-35 -82t-84 -35q-47 0 -82 34t-35 83z" />
<glyph unicode="&#xe5;" horiz-adv-x="847" d="M51 160q0 152 217 209q82 23 195 75q23 14 22 37l-2 131q-4 184 -139 185q-35 0 -76 -30t-41 -62q0 -35 6 -50q-10 -10 -58 -33.5t-64 -27.5q-27 -10 -37.5 -4t-10.5 35q0 76 130 174q104 84 192 84q66 0 130.5 -33t98.5 -84q25 -33 30 -62.5t5 -128.5v-372 q0 -61 10.5 -81t35 -20t36.5 7q25 8 49 30q10 6 19 6q30 -6 14 -51q-135 -119 -217 -119q-88 0 -107 107q-6 6 -8 6t-12 -8l-10 -8q-66 -57 -109 -77t-100 -20q-88 0 -143.5 51.5t-55.5 133.5zM190 1182q0 88 61.5 149.5t149.5 61.5q84 0 145.5 -61.5t61.5 -149.5 t-61.5 -149.5t-145.5 -61.5q-88 0 -149.5 61.5t-61.5 149.5zM209 186q0 -47 32.5 -79.5t80.5 -32.5q33 0 91 37.5t70 70.5v170q0 31 -18 23q-47 -23 -146 -64q-111 -45 -110 -125zM287 1182q0 -47 33.5 -81t80.5 -34q45 0 78 34t33 81t-33 80.5t-78 33.5q-47 0 -80.5 -33.5 t-33.5 -80.5z" />
<glyph unicode="&#xe6;" horiz-adv-x="1339" d="M76 152q0 90 55 134t211 85q96 23 188 82v143q0 197 -145 197q-51 0 -89 -29t-38 -66q0 -6 2 -16t2 -16.5t-3 -14.5t-13 -12l-113 -51q-20 -10 -30.5 4t-10.5 37q0 72 135 176q104 78 195 78q135 0 223 -105q12 -14 31 6q115 102 266 103q109 0 175.5 -49.5t119.5 -165.5 q4 -10 12 -27q8 -20 35 -47v-31q0 -25 -41 -24h-502q-51 0 -51 -45q0 -139 27 -215q27 -80 98.5 -132.5t155.5 -52.5q66 0 116 28t113 95q8 8 21.5 9t19.5 -5l14 -16q14 -12 -4 -35q-82 -94 -170 -149q-94 -59 -188 -60q-176 0 -285 156q-12 20 -30 2q-66 -70 -149 -114 t-153 -44q-86 0 -143 53.5t-57 133.5zM238 180q0 -53 30.5 -85t81.5 -32q82 1 180 97v190q0 29 -20 19q-66 -33 -127 -54q-86 -29 -115.5 -57.5t-29.5 -77.5zM702 629q-4 -20 41 -21h5h305q10 0 16 8.5t4 16.5q-18 86 -66.5 135t-109.5 49q-150 0 -195 -188z" />
<glyph unicode="&#xe7;" horiz-adv-x="864" d="M51 395q0 205 144.5 347.5t351.5 142.5q100 0 172 -37t72 -94q0 -33 -21.5 -54.5t-52.5 -21.5q-53 0 -127 72q-57 57 -117 57q-102 0 -180 -108.5t-78 -256.5q0 -158 80 -257t203 -99q147 0 241 137q12 31 35 25q6 -2 8 -4t4.5 -6.5t4.5 -8.5q16 -12 -3 -39 q-121 -184 -296 -210l-37 -68q-18 -33 -4 -35q59 -8 99 -54t40 -110q0 -80 -57.5 -136t-135.5 -56q-47 0 -88 14q-6 2 -9 11.5t1 19.5q2 2 8 14q4 8 16.5 8t29 -3t20.5 -3q43 0 71.5 28t28.5 66q0 70 -57.5 74t-110.5 -43q-6 -6 -18.5 2t-5.5 21l131 217q6 8 3 18t-14 10 q-156 8 -254 126t-98 294z" />
<glyph unicode="&#xe8;" horiz-adv-x="868" d="M49 414q0 201 120 333t300 132q223 0 295 -181l14 -34q27 -45 43 -66q4 -15 0 -33q0 -18 -26 -18q-158 -6 -549 0q-37 0 -39 -21q-4 -23 -4 -61q0 -158 88 -261.5t217 -103.5q145 0 256 131q14 14 31 11q12 -4 19 -18.5t1 -24.5q-68 -80 -145 -142q-115 -88 -242 -88 q-162 0 -270.5 129t-108.5 316zM225 629q-2 -6 11.5 -11.5t21.5 -5.5h307q16 0 33.5 6.5t15.5 18.5q-23 84 -74 131t-116 47q-139 0 -199 -186zM256 1307q-10 10 1 24.5t30 14.5l155 2q31 0 39 -17q54 -139 103 -334q0 -18 -20.5 -22t-33.5 8q-109 141 -274 324z" />
<glyph unicode="&#xe9;" horiz-adv-x="868" d="M49 414q0 201 120 333t300 132q223 0 295 -181l14 -34q27 -45 43 -66q4 -15 0 -33q0 -18 -26 -18q-158 -6 -549 0q-37 0 -39 -21q-4 -23 -4 -61q0 -158 88 -261.5t217 -103.5q145 0 256 131q14 14 31 11q12 -4 19 -18.5t1 -24.5q-68 -80 -145 -142q-115 -88 -242 -88 q-162 0 -270.5 129t-108.5 316zM225 629q-2 -6 11.5 -11.5t21.5 -5.5h307q16 0 33.5 6.5t15.5 18.5q-23 84 -74 131t-116 47q-139 0 -199 -186zM356 991l101 336q6 27 37 27h180q10 0 16 -1t10 -5.5t2 -12.5q0 -8 -2 -10l-292 -352q-10 -12 -34 -8t-18 26z" />
<glyph unicode="&#xea;" horiz-adv-x="868" d="M49 414q0 201 120 333t300 132q223 0 295 -181l14 -34q27 -45 43 -66q4 -15 0 -33q0 -18 -26 -18q-158 -6 -549 0q-37 0 -39 -21q-4 -23 -4 -61q0 -158 88 -261.5t217 -103.5q145 0 256 131q14 14 31 11q12 -4 19 -18.5t1 -24.5q-68 -80 -145 -142q-115 -88 -242 -88 q-162 0 -270.5 129t-108.5 316zM162 985l182 320q8 12 27 20q12 2 72.5 3t80.5 -1q23 -2 35 -20l180 -312q10 -25 -2 -26q-29 -8 -41 4l-250 213l-235 -213q-18 -16 -43 -2q-10 6 -6 14zM225 629q-2 -6 11.5 -11.5t21.5 -5.5h307q16 0 33.5 6.5t15.5 18.5q-23 84 -74 131 t-116 47q-139 0 -199 -186z" />
<glyph unicode="&#xeb;" horiz-adv-x="868" d="M49 414q0 201 120 333t300 132q223 0 295 -181l14 -34q27 -45 43 -66q4 -15 0 -33q0 -18 -26 -18q-158 -6 -549 0q-37 0 -39 -21q-4 -23 -4 -61q0 -158 88 -261.5t217 -103.5q145 0 256 131q14 14 31 11q12 -4 19 -18.5t1 -24.5q-68 -80 -145 -142q-115 -88 -242 -88 q-162 0 -270.5 129t-108.5 316zM180 1108q0 47 35 82t84 35q47 0 82 -35t35 -82q0 -49 -34 -83t-83 -34t-84 34t-35 83zM225 629q-2 -6 11.5 -11.5t21.5 -5.5h307q16 0 33.5 6.5t15.5 18.5q-23 84 -74 131t-116 47q-139 0 -199 -186zM526 1108q0 47 35 82t82 35q49 0 83 -34 t34 -83t-34 -83t-83 -34q-47 0 -82 34t-35 83z" />
<glyph unicode="&#xec;" horiz-adv-x="536" d="M-14 1307q-10 10 0 24.5t28 14.5l158 2q29 0 39 -17q59 -156 100 -334q2 -18 -18.5 -22t-32.5 8q-109 141 -274 324zM41 27q-4 35 14 34h27q88 0 105.5 30t17.5 165v367q0 76 -8.5 90t-46.5 22q-47 10 -84 23q-10 2 -11.5 23.5t8.5 27.5l261 90q41 14 41 -29v-614 q0 -78 2 -106q2 -57 20.5 -73t81.5 -16h23q16 -3 12 -34q0 -31 -12 -31q-186 4 -433 0q-6 -2 -11 8t-7 23z" />
<glyph unicode="&#xed;" horiz-adv-x="536" d="M41 27q-4 35 14 34h27q88 0 105.5 30t17.5 165v367q0 76 -8.5 90t-46.5 22q-47 10 -84 23q-10 2 -11.5 23.5t8.5 27.5l261 90q41 14 41 -29v-614q0 -78 2 -106q2 -57 20.5 -73t81.5 -16h23q16 -3 12 -34q0 -31 -12 -31q-186 4 -433 0q-6 -2 -11 8t-7 23zM158 991l100 336 q12 27 39 27h180q12 2 21.5 -3.5t7.5 -15.5q0 -2 -2 -6v-4l-293 -352q-10 -12 -34.5 -8t-18.5 26z" />
<glyph unicode="&#xee;" horiz-adv-x="536" d="M-23 985l183 320q8 12 26 20q12 2 72.5 3t81.5 -1q23 -2 35 -20l180 -312q10 -25 -2 -26q-29 -8 -41 4l-250 213l-235 -213q-18 -16 -43 -2q-10 6 -7 14zM41 27q-4 35 14 34h27q88 0 105.5 30t17.5 165v367q0 76 -8.5 90t-46.5 22q-47 10 -84 23q-10 2 -11.5 23.5 t8.5 27.5l261 90q41 14 41 -29v-614q0 -78 2 -106q2 -57 20.5 -73t81.5 -16h23q16 -3 12 -34q0 -31 -12 -31q-186 4 -433 0q-6 -2 -11 8t-7 23z" />
<glyph unicode="&#xef;" horiz-adv-x="536" d="M-27 1108q0 51 36 87t87 36t87 -36t36 -87t-36 -87t-87 -36t-87 36t-36 87zM41 27q-4 35 14 34h27q88 0 105.5 30t17.5 165v367q0 76 -8.5 90t-46.5 22q-47 10 -84 23q-10 2 -11.5 23.5t8.5 27.5l261 90q41 14 41 -29v-614q0 -78 2 -106q2 -57 20.5 -73t81.5 -16h23 q16 -3 12 -34q0 -31 -12 -31q-186 4 -433 0q-6 -2 -11 8t-7 23zM336 1108q0 51 36 87t87 36t88 -36t37 -87t-37 -87t-88 -36t-87 36t-36 87z" />
<glyph unicode="&#xf0;" horiz-adv-x="1116" d="M94 430q0 197 133 330t328 133q70 0 125 -21q20 -6 31.5 4.5t-0.5 38.5q-20 45 -45 80q-43 66 -115 129q-12 12 -37 16.5t-45 -5.5l-260 -138q-20 -4 -33 19q-14 33 14 47l224 117q14 6 16 21.5t-14 25.5q-51 33 -140 63q-8 0 -20 10.5t-4 24.5l16 29q18 31 51 20 q152 -41 263 -104l192 96q35 10 47 -14q16 -25 -14 -41l-115 -62q-47 -25 -4 -55q59 -45 121 -119q63 -76 102 -145q119 -212 119 -445q0 -274 -149 -403q-129 -117 -316 -117q-205 0 -338 131t-133 334zM270 498q0 -193 94.5 -326t225.5 -133q115 0 188.5 90t73.5 231 q0 197 -93 327t-231 130q-109 0 -183.5 -91t-74.5 -228z" />
<glyph unicode="&#xf1;" horiz-adv-x="1056" d="M33 39.5q4 19.5 18 19.5h12q72 0 94.5 39t22.5 174v281q0 150 -8 166q-8 18 -80 33l-41 8q-10 2 -10 26.5t10 28.5q33 6 119 43t123 45q47 12 47 -35v-112q0 -6 7 -18.5t15 -6.5q96 68 170 105q86 41 144 41q227 0 227 -369q0 -61 -8 -184t-8 -187q0 -47 16.5 -60.5 t85.5 -13.5q18 12 33 -6q10 -18 4 -43q-2 -12 -6 -15t-19 -3h-6q-43 0 -193.5 1t-195.5 -1q-20 0 -25.5 6t-7.5 27q0 35 17 34h14q68 6 93.5 29t31.5 86q12 119 12 361q0 227 -149 227q-96 0 -252 -121v-463q0 -78 22.5 -98.5t102.5 -20.5q14 0 18 -34q0 -33 -28 -35 q-47 2 -194.5 0t-197.5 2q-25 0 -28 10q-6 14 -2 33.5zM195 967q12 276 200 276q82 0 201 -82q82 -55 121 -55q35 0 52 27.5t30 107.5q0 12 26 12q25 4 25 -12q4 -13 4 -27q0 -111 -57.5 -182t-145.5 -71q-86 0 -198 79q-86 59 -121 60q-31 0 -47.5 -20.5t-28.5 -75.5 q0 -4 -2 -15.5t-4 -21.5q-6 -14 -28.5 -16.5t-26.5 16.5z" />
<glyph unicode="&#xf2;" horiz-adv-x="1013" d="M47 424q0 197 132 327t329 130q199 0 334 -132t133 -327q0 -190 -133 -321.5t-328 -131.5q-199 0 -333 130t-134 325zM225 489q0 -186 92.5 -315t221.5 -129q109 0 181.5 92.5t72.5 235.5q0 178 -93.5 306t-220.5 128q-109 0 -181.5 -90t-72.5 -228zM342 1307 q-8 10 2 24.5t29 14.5l157 2q29 0 39 -17q60 -156 101 -334q2 -18 -19.5 -22t-32.5 8q-115 152 -276 324z" />
<glyph unicode="&#xf3;" horiz-adv-x="1013" d="M47 424q0 197 132 327t329 130q199 0 334 -132t133 -327q0 -190 -133 -321.5t-328 -131.5q-199 0 -333 130t-134 325zM225 489q0 -186 92.5 -315t221.5 -129q109 0 181.5 92.5t72.5 235.5q0 178 -93.5 306t-220.5 128q-109 0 -181.5 -90t-72.5 -228zM442 991l101 336 q14 27 37 27h182q8 0 14 -1t11.5 -5.5t3.5 -12.5v-6l-3 -4l-292 -352q-12 -12 -36 -8t-18 26z" />
<glyph unicode="&#xf4;" horiz-adv-x="1013" d="M47 424q0 197 132 327t329 130q199 0 334 -132t133 -327q0 -190 -133 -321.5t-328 -131.5q-199 0 -333 130t-134 325zM209 985l182 320q8 12 27 20q12 2 72.5 3t80.5 -1q23 -2 35 -20l180 -312q10 -25 -2 -26q-29 -8 -41 4l-249 213l-236 -213q-18 -16 -43 -2 q-10 6 -6 14zM225 489q0 -186 92.5 -315t221.5 -129q109 0 181.5 92.5t72.5 235.5q0 178 -93.5 306t-220.5 128q-109 0 -181.5 -90t-72.5 -228z" />
<glyph unicode="&#xf5;" horiz-adv-x="1013" d="M47 424q0 197 132 327t329 130q199 0 334 -132t133 -327q0 -190 -133 -321.5t-328 -131.5q-199 0 -333 130t-134 325zM170 967q12 276 201 276q82 0 200 -82q82 -55 121 -55q35 0 52.5 27.5t29.5 107.5q0 12 27 12q25 4 24 -12q4 -13 4 -27q0 -111 -57 -182t-145 -71 q-82 0 -199 79q-84 59 -121 60q-31 0 -47 -20.5t-29 -75.5q0 -4 -2 -15.5t-4 -21.5q-6 -14 -28.5 -16.5t-26.5 16.5zM225 489q0 -186 92.5 -315t221.5 -129q109 0 181.5 92.5t72.5 235.5q0 178 -93.5 306t-220.5 128q-109 0 -181.5 -90t-72.5 -228z" />
<glyph unicode="&#xf6;" horiz-adv-x="1013" d="M47 424q0 197 132 327t329 130q199 0 334 -132t133 -327q0 -190 -133 -321.5t-328 -131.5q-199 0 -333 130t-134 325zM225 489q0 -186 92.5 -315t221.5 -129q109 0 181.5 92.5t72.5 235.5q0 178 -93.5 306t-220.5 128q-109 0 -181.5 -90t-72.5 -228zM225 1108q0 47 35 82 t82 35t82 -35t35 -82q0 -49 -34 -83t-83 -34t-83 34t-34 83zM569 1108q0 47 35 82t82 35q51 0 85 -35t34 -82t-34 -82t-85 -35q-47 0 -82 34t-35 83z" />
<glyph unicode="&#xf7;" horiz-adv-x="1431" d="M152 672v51q0 37 63 37h979h37q20 0 29 -2q27 -6 28 -31l4 -59q2 -27 -16.5 -34t-46.5 -7h-1012q-18 0 -41.5 14t-23.5 31zM629 266q0 37 25.5 61.5t62.5 24.5t61.5 -24.5t24.5 -61.5t-24.5 -62.5t-61.5 -25.5q-35 0 -61.5 25.5t-26.5 62.5zM629 1133q0 35 26.5 57 t61.5 22t60.5 -24.5t25.5 -59.5q0 -37 -25.5 -62.5t-60.5 -25.5q-37 0 -63.5 27t-24.5 66z" />
<glyph unicode="&#xf8;" horiz-adv-x="1116" d="M94 422q0 199 134 331t335 132q145 0 273 -82q4 -2 14 3t12 9l92 109q12 12 25 0q20 -16 20 -19q14 -14 -14 -43q-18 -20 -78 -92q-14 -14 -4 -25q129 -131 129 -321q0 -195 -134 -327t-329 -132q-143 0 -268 78q-16 10 -31 -6l-110 -137q-16 -16 -33 0l-23 18 q-10 8 7 31l108 125q16 20 6 30q-131 129 -131 318zM279 487.5q0 -141.5 53 -249.5q2 -6 13 -5.5t17 9.5l377 434q12 14 0 29q-88 106 -204 106q-111 0 -183.5 -91t-72.5 -232.5zM389 147q88 -106 203 -106q111 0 185.5 94.5t74.5 237.5q0 123 -57 237q-8 20 -21 8 l-385 -446q-12 -12 0 -25z" />
<glyph unicode="&#xf9;" d="M40 819.5q-3 22.5 13 26.5q20 4 117.5 28.5t138.5 32.5q16 2 24.5 -10t8.5 -29v-491q0 -164 38 -220.5t142 -56.5q100 0 230 103l2 6q2 6 4 15t2 18v354q0 92 -6 121q-14 55 -62 63q-10 2 -19 4t-14.5 3t-11.5 4q-2 0 -67 10q-12 6 -10.5 27.5t14.5 25.5q209 47 293 55 q41 4 41 -32v-652v-63q0 -68 88 -45l43 12q12 2 17 -13.5t1 -33t-16 -19.5q-113 -49 -234 -73q-23 -8 -39 -3t-18 31l-4 80q0 8 -4 22.5t-11 8.5q-68 -49 -104.5 -73.5t-101 -50t-123.5 -25.5q-231 0 -232 282v432q0 35 -8 51.5t-37 24.5q-16 6 -47 14.5t-35 10.5 q-10 2 -13 24.5zM322 1307q-8 10 2 24.5t28 14.5l158 2q29 0 39 -17q59 -156 100 -334q2 -18 -19.5 -22t-31.5 8q-115 152 -276 324z" />
<glyph unicode="&#xfa;" d="M40 819.5q-3 22.5 13 26.5q20 4 117.5 28.5t138.5 32.5q16 2 24.5 -10t8.5 -29v-491q0 -164 38 -220.5t142 -56.5q100 0 230 103l2 6q2 6 4 15t2 18v354q0 92 -6 121q-14 55 -62 63q-10 2 -19 4t-14.5 3t-11.5 4q-2 0 -67 10q-12 6 -10.5 27.5t14.5 25.5q209 47 293 55 q41 4 41 -32v-652v-63q0 -68 88 -45l43 12q12 2 17 -13.5t1 -33t-16 -19.5q-113 -49 -234 -73q-23 -8 -39 -3t-18 31l-4 80q0 8 -4 22.5t-11 8.5q-68 -49 -104.5 -73.5t-101 -50t-123.5 -25.5q-231 0 -232 282v432q0 35 -8 51.5t-37 24.5q-16 6 -47 14.5t-35 10.5 q-10 2 -13 24.5zM442 991l101 336q14 27 37 27h182q8 0 14 -1t11.5 -5.5t3.5 -12.5v-6l-3 -4l-292 -352q-12 -12 -36 -8t-18 26z" />
<glyph unicode="&#xfb;" d="M40 819.5q-3 22.5 13 26.5q20 4 117.5 28.5t138.5 32.5q16 2 24.5 -10t8.5 -29v-491q0 -164 38 -220.5t142 -56.5q100 0 230 103l2 6q2 6 4 15t2 18v354q0 92 -6 121q-14 55 -62 63q-10 2 -19 4t-14.5 3t-11.5 4q-2 0 -67 10q-12 6 -10.5 27.5t14.5 25.5q209 47 293 55 q41 4 41 -32v-652v-63q0 -68 88 -45l43 12q12 2 17 -13.5t1 -33t-16 -19.5q-113 -49 -234 -73q-23 -8 -39 -3t-18 31l-4 80q0 8 -4 22.5t-11 8.5q-68 -49 -104.5 -73.5t-101 -50t-123.5 -25.5q-231 0 -232 282v432q0 35 -8 51.5t-37 24.5q-16 6 -47 14.5t-35 10.5 q-10 2 -13 24.5zM215 985l182 320q8 12 27 20q12 2 72.5 3t81.5 -1q23 -2 34 -20l181 -312q10 -25 -2 -26q-29 -8 -41 4l-250 213l-236 -213q-18 -16 -43 -2q-10 6 -6 14z" />
<glyph unicode="&#xfc;" d="M40 819.5q-3 22.5 13 26.5q20 4 117.5 28.5t138.5 32.5q16 2 24.5 -10t8.5 -29v-491q0 -164 38 -220.5t142 -56.5q100 0 230 103l2 6q2 6 4 15t2 18v354q0 92 -6 121q-14 55 -62 63q-10 2 -19 4t-14.5 3t-11.5 4q-2 0 -67 10q-12 6 -10.5 27.5t14.5 25.5q209 47 293 55 q41 4 41 -32v-652v-63q0 -68 88 -45l43 12q12 2 17 -13.5t1 -33t-16 -19.5q-113 -49 -234 -73q-23 -8 -39 -3t-18 31l-4 80q0 8 -4 22.5t-11 8.5q-68 -49 -104.5 -73.5t-101 -50t-123.5 -25.5q-231 0 -232 282v432q0 35 -8 51.5t-37 24.5q-16 6 -47 14.5t-35 10.5 q-10 2 -13 24.5zM250 1108q0 47 34.5 82t82.5 35q49 0 83.5 -35t34.5 -82q0 -49 -34.5 -83t-84 -34t-83 34t-33.5 83zM594 1108q0 47 35 82t84 35t82.5 -35t33.5 -82t-33.5 -82t-82.5 -35t-84 34t-35 83z" />
<glyph unicode="&#xfd;" horiz-adv-x="1005" d="M18 840q6 23 41 18q35 -2 349 4q33 0 38 -16q4 -14 0 -30.5t-12 -18.5q-66 -2 -86 -14.5t-20 -37.5q0 -23 22 -71q25 -51 189 -459q6 -14 28 21q4 4 4 6l123 313q20 51 31 84q18 55 18 84q0 39 -25.5 55.5t-99.5 18.5q-10 6 -11 31.5t18 27.5h16q176 10 295 2 q35 0 39 -18q2 -12 -2 -27.5t-10 -15.5q-63 -8 -101.5 -56.5t-99.5 -210.5l-254 -684q-72 -184 -86 -219q-31 -74 -74 -125q-33 -43 -94 -43q-39 0 -67.5 28t-28.5 64q0 63 102 89q63 16 105.5 72.5t78.5 176.5l29 95l-262 618q-57 133 -82 161t-98 34q-6 2 -10.5 16 t-2.5 27zM387 991l100 336q12 27 37 27h183q8 0 14 -1t11 -5.5t3 -12.5q0 -2 -2 -6v-4l-293 -352q-12 -12 -35.5 -8t-17.5 26z" />
<glyph unicode="&#xfe;" horiz-adv-x="1071" d="M6 -494l2 33q0 12 7.5 15.5t22.5 1.5t17 -2q53 2 75 14t32 56t10 149v1335v53q0 37 -8 47.5t-45 20.5l-58 16q-23 6 -22 43q0 16 8 21q2 2 10 6l224 137q31 12 44 6t13 -39v-581q0 -27 6 -50q8 -25 21 -12q180 125 290 125q131 0 229.5 -125t98.5 -289q0 -197 -139 -343 t-326 -146q-74 0 -160 29q-12 4 -16 -9.5t-4 -35.5v-209q0 -139 24.5 -182.5t108.5 -36.5l31 2q18 2 24 -3.5t9 -23.5q6 -23 1.5 -35t-32.5 -10q-326 6 -469 0q-29 0 -29 22zM338 199q117 -111 240 -111q102 0 170.5 90.5t68.5 229.5q0 156 -77.5 260t-188.5 104 q-98 0 -213 -98v-475z" />
<glyph unicode="&#xff;" horiz-adv-x="999" d="M18 840q6 23 41 18q35 -2 349 4q33 0 38 -16q4 -14 0 -30.5t-12 -18.5q-66 -2 -86 -14.5t-20 -37.5q0 -23 22 -71q25 -51 189 -459q6 -14 28 21q4 4 4 6l123 313q20 51 31 84q18 55 18 84q0 39 -25.5 55.5t-99.5 18.5q-10 6 -11 31.5t18 27.5h16q176 10 295 2 q35 0 39 -18q2 -12 -2 -27.5t-10 -15.5q-63 -8 -101.5 -56.5t-99.5 -210.5l-254 -684q-72 -184 -86 -219q-31 -74 -74 -125q-33 -43 -94 -43q-39 0 -67.5 28t-28.5 64q0 63 102 89q63 16 105.5 72.5t78.5 176.5l29 95l-262 618q-57 133 -82 161t-98 34q-6 2 -10.5 16 t-2.5 27zM199 1108q0 51 36.5 87t88 36t87 -36t35.5 -87t-35.5 -87t-87 -36t-88 36t-36.5 87zM563 1108q0 51 36 87t87 36t88 -36t37 -87t-37 -87t-88 -36t-87 36t-36 87z" />
<glyph unicode="&#x152;" horiz-adv-x="2121" d="M123 657q0 205 103.5 376t279.5 257q141 70 348 70q76 0 227 -8q104 -6 117 -6q6 0 39 1t72 1h589q23 0 31 -6.5t10 -30.5q16 -168 15 -252q0 -25 -19 -25q-6 0 -14 -1t-11 -1t-7.5 1t-7.5 6t-5 16l-10 41q-27 102 -52.5 126.5t-109.5 24.5h-358q-10 0 -24.5 -9 t-14.5 -21v-449q0 -25 59 -25h242q104 0 131 25q23 25 35 119q4 23 20 22h29q14 0 16 -16v-6q4 -109 0 -367q0 -45 -16 -45h-29q-16 0 -20 31q-8 88 -36 112.5t-112 24.5h-282q-16 0 -26.5 -11t-10.5 -24v-481q0 -10 19.5 -22.5t33.5 -12.5h299q119 0 158 10.5t72 49.5 q43 55 67 147q2 6 3 13t2 10.5t5.5 5.5t14.5 2h22q19 0 17 -33q0 -59 -29 -266q-4 -27 -18.5 -33t-47.5 -6q-125 0 -362.5 1t-359.5 1q-70 0 -208.5 -9.5t-205.5 -9.5q-285 0 -482.5 199t-197.5 483zM332 698q0 -274 148.5 -460.5t363.5 -186.5q115 0 192 60 q53 41 68.5 103.5t15.5 248.5v581q0 242 -293 242q-233 0 -364 -155.5t-131 -432.5z" />
<glyph unicode="&#x153;" horiz-adv-x="1587" d="M98 428q0 190 134.5 322.5t328.5 132.5q184 0 289 -127q16 -18 39 4q121 123 287 123q221 0 297 -199q25 -59 57 -90v-31q0 -20 -27 -20h-493q-57 0 -58 -31q0 -180 82 -305t195 -125q90 0 237 147q4 4 9.5 6.5t8.5 2.5t7 -3.5t6 -5.5t6 -7t6 -7q14 -14 -4 -35 q-74 -82 -174 -151q-98 -63 -196 -64q-143 0 -236 133q-12 12 -22 0q-119 -133 -312 -133q-199 0 -333 133t-134 330zM279 479q0 -176 93 -307t212 -131q100 0 157.5 86t57.5 244q0 197 -78 318.5t-197 121.5q-102 0 -173.5 -94t-71.5 -238zM965 629q0 -6 7 -11.5t18 -7.5 t22 -2h270q31 0 27 29q-8 82 -54.5 134t-111.5 52q-143 0 -178 -194z" />
<glyph unicode="&#x178;" horiz-adv-x="1490" d="M33 1278q-4 12 0 29q4 25 22 24q395 -6 551 0q8 0 17.5 -16.5t4.5 -31.5t-28 -15q-129 0 -129 -41q0 -25 66 -127l274 -422q8 -10 26.5 -1t28.5 28l219 370q66 109 66 137q0 31 -23.5 42.5t-93.5 11.5h-20q-18 8 -16.5 36.5t22.5 28.5q178 -6 457 0q18 0 18 -31 q0 -35 -18 -34q-104 -6 -170 -74q-31 -33 -107 -160l-303 -514v-107.5v-128v-79.5q0 -59 25.5 -92t89.5 -41q8 0 32.5 1t34.5 -3q25 -6 25 -41t-25 -35q-406 6 -573 2q-16 0 -22.5 21.5t-0.5 37.5q8 20 43 21q10 2 31 0t25 -2q109 6 114 131q10 154 2 291l-374 585 q-72 113 -120 147t-143 38q-25 0 -28 14zM453 1564.5q0 51.5 36.5 87.5t88 36t87 -36t35.5 -87.5t-35.5 -87t-87 -35.5t-88 35.5t-36.5 87zM817 1564.5q0 51.5 36 87.5t87 36t87 -36t36 -87.5t-36 -87t-87 -35.5t-87 35.5t-36 87z" />
<glyph unicode="&#x2c6;" horiz-adv-x="714" d="M70 985l182 320q8 12 27 20q12 2 69.5 3t77.5 -1q23 -2 35 -20l180 -312q6 -16 -2 -26q-20 -16 -41 4l-246 213l-233 -213q-25 -23 -45 -4q-8 8 -4 16z" />
<glyph unicode="&#x2dc;" horiz-adv-x="714" d="M29 967q12 276 200 276q82 0 201 -82q82 -55 121 -55q35 0 52.5 27.5t29.5 107.5q0 12 26 12q25 4 25 -12q4 -13 4 -27q0 -111 -57.5 -182t-145.5 -71q-82 0 -198 79q-84 59 -121 60q-31 0 -47.5 -20.5t-28.5 -75.5q0 -4 -2 -15.5t-4 -21.5q-6 -14 -28.5 -16.5 t-26.5 16.5z" />
<glyph unicode="&#x2000;" horiz-adv-x="917" />
<glyph unicode="&#x2001;" horiz-adv-x="1835" />
<glyph unicode="&#x2002;" horiz-adv-x="917" />
<glyph unicode="&#x2003;" horiz-adv-x="1835" />
<glyph unicode="&#x2004;" horiz-adv-x="611" />
<glyph unicode="&#x2005;" horiz-adv-x="458" />
<glyph unicode="&#x2006;" horiz-adv-x="305" />
<glyph unicode="&#x2007;" horiz-adv-x="305" />
<glyph unicode="&#x2008;" horiz-adv-x="229" />
<glyph unicode="&#x2009;" horiz-adv-x="367" />
<glyph unicode="&#x200a;" horiz-adv-x="101" />
<glyph unicode="&#x2010;" horiz-adv-x="890" d="M90 432v82q0 16 13.5 25.5t25.5 9.5q68 -2 303.5 1t349.5 -1q10 0 19.5 -11.5t9.5 -21.5l-4 -80q-6 -25 -35 -28q-158 4 -357.5 1t-303.5 -1q-14 0 -21 24z" />
<glyph unicode="&#x2011;" horiz-adv-x="890" d="M90 432v82q0 16 13.5 25.5t25.5 9.5q68 -2 303.5 1t349.5 -1q10 0 19.5 -11.5t9.5 -21.5l-4 -80q-6 -25 -35 -28q-158 4 -357.5 1t-303.5 -1q-14 0 -21 24z" />
<glyph unicode="&#x2012;" horiz-adv-x="890" d="M90 432v82q0 16 13.5 25.5t25.5 9.5q68 -2 303.5 1t349.5 -1q10 0 19.5 -11.5t9.5 -21.5l-4 -80q-6 -25 -35 -28q-158 4 -357.5 1t-303.5 -1q-14 0 -21 24z" />
<glyph unicode="&#x2013;" horiz-adv-x="1247" d="M78 461l2 71q4 18 24 23q377 12 1043 0q12 0 20.5 -9t8.5 -18v-75q-2 -18 -33 -19q-573 6 -1045 0q-6 0 -13 9.5t-7 17.5z" />
<glyph unicode="&#x2014;" horiz-adv-x="1751" d="M170 496q0 12 11.5 25.5t33.5 13.5q680 12 1313 0q33 -11 35 -23q8 -2 2 -37t-6 -41q-12 -25 -29 -22q-745 10 -1323 0q-12 -2 -23.5 5t-9.5 21q0 8 -3 24.5t-1 33.5z" />
<glyph unicode="&#x2018;" horiz-adv-x="557" d="M141 1112q0 100 66.5 185t177.5 126q12 4 23.5 -6t11.5 -24.5t-17 -28.5q-152 -86 -151 -197q0 -31 20 -30q6 0 20.5 5t22.5 5q43 0 72 -32t29 -75q0 -49 -34 -81.5t-83 -32.5q-68 0 -113 54t-45 132z" />
<glyph unicode="&#x2019;" horiz-adv-x="557" d="M145 1307q0 49 35 81.5t84 32.5q68 0 112 -51t44 -129q0 -92 -60.5 -176t-156.5 -131q-33 -16 -45 -2q-29 33 0 51q154 90 153 195q0 16 -4 25t-18 7q-29 -8 -45 -8q-43 0 -71 30t-28 75z" />
<glyph unicode="&#x201a;" horiz-adv-x="526" d="M137 59q0 45 33 76t80 31q61 0 101 -49t40 -123q0 -94 -61.5 -175t-161.5 -120q-14 -6 -23 20q-4 31 5 33q143 88 143 187q0 29 -14 28h-7q-4 0 -14 -2t-14 -4h-15q-39 0 -65.5 28.5t-26.5 69.5z" />
<glyph unicode="&#x201c;" horiz-adv-x="1028" d="M164 1104q0 96 63.5 182t165.5 131q27 10 37 -8q20 -35 -2 -45q-154 -90 -154 -197q0 -31 21 -30l4 2h6l10 2q16 4 27 4q43 0 70.5 -31t27.5 -74q0 -49 -34.5 -81.5t-83.5 -32.5q-68 0 -113 51t-45 127zM625 1104q0 96 63.5 182t165.5 131q29 10 41 -6q18 -33 -6 -47 q-154 -86 -154 -197q0 -31 21 -30q6 0 22.5 4t24.5 4q43 0 70.5 -31t27.5 -74q0 -49 -35 -81.5t-84 -32.5q-68 0 -112.5 51t-44.5 127z" />
<glyph unicode="&#x201d;" horiz-adv-x="1026" d="M158 1307q0 49 34.5 81.5t86.5 32.5q68 0 112.5 -51t44.5 -129q0 -92 -62.5 -177t-162.5 -132q-33 -10 -45 4q-23 31 2 47q158 84 158 195q0 35 -17 34q-6 0 -24 -6q-20 -4 -29 -4q-41 0 -69.5 30t-28.5 75zM616.5 959.5q-0.5 15.5 12.5 23.5q158 84 157 195q0 20 -5 27 t-15 5q-8 0 -10 -2q-4 0 -17.5 -3t-21.5 -3q-41 0 -70 30t-29 75q0 49 35 81.5t86 32.5q68 0 113 -51t45 -129q0 -92 -61.5 -178t-161.5 -131q-37 -16 -47 0q-10 12 -10.5 27.5z" />
<glyph unicode="&#x201e;" horiz-adv-x="968" d="M147 59q0 45 34 76t81 31q63 0 104.5 -49t41.5 -123q0 -94 -62.5 -174t-165.5 -121q-14 -4 -26.5 20.5t6.5 32.5q147 88 147 187q0 29 -16 28q-4 0 -11.5 -1t-11.5 -1q-16 -4 -26 -4q-39 0 -67 28.5t-28 69.5zM582 59q0 45 33.5 76t80.5 31q63 0 104.5 -49t41.5 -123 q0 -94 -62.5 -175t-165.5 -120q-8 -4 -16 8t-8 25.5t4 19.5q147 86 147 187q0 29 -14 28h-2h-6l-17 -2q-16 -4 -26 -4q-39 0 -66.5 28.5t-27.5 69.5z" />
<glyph unicode="&#x2022;" horiz-adv-x="759" d="M113 672q0 113 77.5 192.5t190.5 79.5t192.5 -80t79.5 -192.5t-79.5 -192.5t-192.5 -80t-190.5 79t-77.5 194z" />
<glyph unicode="&#x2026;" horiz-adv-x="2162" d="M258 86q0 49 35 79t90 30q53 0 87 -32t34 -83q0 -49 -34 -82t-87 -33t-89 35t-36 86zM971 78q0 51 33.5 83t89.5 32q53 0 86.5 -32t33.5 -83t-32.5 -82t-85.5 -31q-55 0 -90 32t-35 81zM1675 86q0 51 34 80t89 29q53 0 87 -32t34 -83t-33 -83t-86 -32t-89 36t-36 85z" />
<glyph unicode="&#x202f;" horiz-adv-x="367" />
<glyph unicode="&#x2039;" horiz-adv-x="1802" d="M40 37.5q5 17.5 23 21.5h23q80 0 105.5 25t25.5 104v496q0 12 -13.5 24.5t-21.5 12.5h-88q-37 0 -41 14q-4 10 -4 25.5t4 21.5q6 4 21 11q2 2 4 2q94 18 141 49q6 82 12 141q12 80 23 109q31 88 154 198q72 66 171 109t212.5 42t189.5 -65q41 -45 84 -16q76 55 165 87 t185 26.5t166 -62.5q31 -27 31 -49.5t-40 -60t-63 -37.5q-20 0 -49 28q-49 43 -90 58.5t-102 15.5q-84 0 -158 -62.5t-94 -148.5q-14 -70 -15 -248q0 -49 25 -51q90 -12 377 0q82 2 178 35q16 6 26.5 -12.5t10.5 -36.5v-664q0 -78 20.5 -97.5t83.5 -19.5q16 4 29 0 q12 -2 11 -34.5t-11 -36.5q-193 6 -438 0q-14 0 -15 33q0 16 2.5 23t9.5 12.5t21 2.5q88 0 106.5 30t18.5 177v316q0 154 -125 155q-199 6 -287 2q-14 -2 -26 -15t-14 -23l-3 -435q0 -131 18.5 -169t108.5 -38h41q23 0 28 -8t5 -30q0 -33 -12 -33q-246 4 -492 -2 q-16 0 -16 30q0 33 16 39h17q47 0 65.5 2t33.5 25t17.5 60.5t2.5 119.5v412q-12 51 -33 53q-72 4 -203 4t-176 -6q-29 -4 -33 -45v-508q2 -68 26.5 -89t98.5 -21q51 0 61 -3q12 -4 15.5 -23.5t-1.5 -34.5t-14 -15q-301 10 -518 0q-10 0 -16 15t-1 32.5zM389 891 q0 -41 27 -43q229 -10 389 0q16 2 23.5 14t8.5 25.5t1 36v28.5q6 154 55 242q10 23 -33 66q-82 74 -205 73q-84 0 -158.5 -61.5t-93.5 -147.5q-14 -59 -14 -233z" />
<glyph unicode="&#x203a;" horiz-adv-x="1761" d="M48 4q-5 14 0 30.5t24 20.5q6 4 29.5 3t29.5 -1q59 2 76.5 28t17.5 103v500q0 33 -26 33h-97q-37 0 -43 14q-6 37 2 47q2 2 23 13q92 16 141 49q6 82 13 141q6 53 22 109q31 88 154 198q74 66 170 108t205.5 42t185.5 -64q37 -35 55 -18q111 96 254 96q23 0 66 -5t63 -5 q55 0 94 49q61 23 62 -14v-1303q0 -76 13 -96.5t71 -22.5q2 0 14 1t18.5 0t14.5 -5t10 -12q8 -19 0 -39q-4 -14 -18 -12h-9h-428q-12 0 -16 20.5t2 32.5q4 10 21.5 12t41 1t29.5 -1q49 6 60.5 42t11.5 171l2 418q0 51 -37 51q-262 10 -362 0q-10 -2 -25 -49v-512 q0 -76 24.5 -99.5t100.5 -23.5q10 4 22 0q16 -2 16.5 -32.5t-16.5 -30.5q-129 4 -438 0q-10 0 -15 18.5t-1 30.5q4 10 13 14t18.5 2t17.5 0q53 4 72 29q14 18 17 47t3 137v398q0 39 -7 49t-34 12h-102.5h-138h-105.5q-16 0 -23.5 -7t-11.5 -32v-422q0 -109 3 -135.5 t16 -44.5q12 -20 32.5 -26.5t75.5 -6.5q29 6 60 0q12 -4 15 -20.5t-2 -30.5t-13 -14q-264 10 -519 0q-10 0 -15 14zM395 883q0 -37 23 -39q111 -4 348 0q29 0 40 6t13 33q11 163 68 286q16 37 -6 62q-6 8 -27 29q-78 74 -192 73q-84 0 -159 -61.5t-93 -147.5 q-14 -59 -15 -241zM983 895q0 -23 10.5 -31t40.5 -10h326q45 0 45 41v389q-115 78 -207 78q-76 0 -133 -78q-80 -109 -82 -389z" />
<glyph unicode="&#x205f;" horiz-adv-x="458" />
<glyph unicode="&#x20ac;" horiz-adv-x="1001" d="M8 506v47q0 20 23 20h121v50q0 68 2 98h-111q-25 0 -25 24v50q0 20 23 20h123q35 238 150.5 367t267.5 129q90 0 186 -58q35 -20 51 -4q12 12 28.5 15.5t28 -2t11.5 -15.5q8 -156 8 -297q0 -12 -17.5 -19t-35 -6t-19.5 9q-27 145 -89 224t-146 79q-221 0 -252 -422h373 q23 0 22 -20v-50q0 -25 -24 -24h-375v-55q0 -63 2 -93h362q23 0 23 -20v-47q0 -25 -25 -25h-354q20 -217 88 -329.5t174 -112.5q102 0 178 123q20 37 60 157q2 16 47 15q33 0 31 -17q-29 -174 -74 -315q-16 4 -35 4q-39 0 -102.5 -21.5t-124.5 -21.5q-154 0 -274 138.5 t-148 379.5h-127q-25 0 -25 25z" />
<glyph unicode="&#x2122;" horiz-adv-x="2099" d="M34 1209.5q-3 7.5 1 39.5l18 152q2 23 10.5 29t32.5 6q324 -8 688 0q31 2 41.5 -5.5t12.5 -37.5l16 -152q0 -4 1 -11t1 -9q0 -10 -2 -13q-2 -6 -25 -6h-30q-12 86 -52 117t-139 31h-33q-16 0 -20 -4q-12 -4 -12 -37v-553q0 -76 14 -98.5t72 -26.5h12q6 0 6 -2q6 -2 6 -33 v-14q-4 -8 -4 -9q-4 -6 -35 -4q-143 6 -331 0q-31 0 -37 4.5t-6 26.5v16q2 10 10 13q8 0 14 2q55 8 67.5 27.5t12.5 95.5v557q0 33 -12 37q-4 2 -21 2h-35q-92 0 -132 -31t-54 -117h-35q-18 0 -21 7.5zM905 580v22q0 27 29 27q59 2 73.5 24.5t14.5 100.5v487 q0 86 -13.5 107.5t-72.5 23.5q-23 0 -29 8l-2 4v7v18q0 18 5 22.5t22 4.5q201 -6 268 -2q23 0 31 -19l250 -524q10 -18 16 -21q6 -4 10 7l258 559h267q23 0 30 -4q10 -6 11 -27q0 -23 -4.5 -27t-10.5 -4q-4 -2 -18 -2q-53 -2 -67.5 -25.5t-14.5 -103.5v-487 q0 -78 13.5 -99.5t70.5 -25.5q8 -2 18 -2q6 0 8 -2q5 -4 5 -31q0 -16 -6.5 -21.5t-26.5 -5.5q-27 0 -106 1t-144.5 1t-103.5 -2q-33 -2 -41.5 3.5t-8.5 27.5v21q0 10 9 10h8h22q55 4 70.5 27.5t15.5 95.5v436q-2 14 -6 16q-4 -4 -6 -10l-289 -627h-49l-285 617 q-12 6 -14 -23v-407q0 -84 15.5 -105.5t70.5 -21.5h31q12 0 14 -2q4 -4 4 -9q0 -2 -1 -8t-1 -10q0 -33 -8 -35h-14q-12 4 -23 4q-186 4 -256 0q-10 -2 -24.5 -2t-14.5 13z" />
<glyph unicode="&#x25fc;" horiz-adv-x="849" d="M0 0v850h850v-850h-850z" />
<glyph unicode="&#xfb01;" horiz-adv-x="1136" d="M82 8q-12 31 12 43l47 6q53 8 63.5 35t10.5 139v426q0 53 -41 56l-70 6q-12 6 -15 22.5t9 24.5q6 6 38 16.5t50 20.5q29 14 29 41q0 195 64 344q43 102 143 189t254 87q104 0 180 -48t76 -113q0 -43 -29 -64.5t-57 -21.5q-37 0 -55 30q-41 70 -92.5 102.5t-96.5 32.5 q-229 0 -229 -489q0 -33 1 -44t13 -25.5t39 -14.5q117 -4 211 0q154 4 240 22q39 12 49 -4q-8 -147 -8 -256v-340q0 -113 11 -139t64 -35l43 -6q16 -2 15.5 -26.5t-17.5 -32.5q-61 4 -194 4h-172q-2 0 -10.5 -1t-10.5 0t-6 4t-6 11q-12 41 41 45q6 2 10 2q53 8 64.5 35 t11.5 139v355q0 90 -16.5 110.5t-83.5 22.5q-123 4 -246 0q-25 -2 -34 -13.5t-9 -48.5v-426q0 -113 11 -141.5t62 -32.5l66 -6q18 -2 15 -28.5t-19 -30.5q-127 6 -217 6q-92 0 -178 -6q-25 0 -31 16z" />
<glyph unicode="&#xfb02;" horiz-adv-x="1103" d="M49 4q-10 20 0 43q4 10 29 10q72 6 90 31q14 18 17 48t3 136v430q0 33 -32 37h-95q-6 0 -10 17q-4 18 0 28q4 16 17 17l106 45q14 10 14 24q18 287 160 441q137 154 305 153q23 0 66 -5t63 -5q55 0 95 49q55 20 61 -2v-1321q0 -82 15.5 -102.5t88.5 -20.5q10 4 27 0 q8 -2 11 -19.5t-1 -31.5q-2 -12 -14 -12h-8q-201 8 -420 0h-8q-14 0 -19 12q-6 14 -2 31.5t17 19.5h16q39 0 55.5 1t36 8.5t24.5 17.5t11 39t7 59.5t1 89.5v437q0 35 -39 34q-279 6 -360 -2q-18 0 -23 -22v-539q0 -76 24.5 -99.5t100.5 -23.5q12 4 21 0q14 -2 16 -31.5 t-12 -31.5h-6h-6q-27 0 -115 2t-167 2t-132 -4q-20 -4 -29 10zM354 877q0 -8 4 -12.5t7.5 -5.5t13.5 -2t12 -1q57 -2 123 -2t132.5 1t88.5 1q35 0 41 45v385q-115 78 -207 78q-76 0 -133 -78q-82 -115 -82 -409z" />
<glyph unicode="&#xfb03;" horiz-adv-x="1802" d="M40 37.5q5 17.5 23 21.5h23q80 0 105.5 25t25.5 104v496q0 12 -13.5 24.5t-21.5 12.5h-88q-37 0 -41 14q-4 10 -4 25.5t4 21.5q6 4 21 11q2 2 4 2q94 18 141 49q6 82 12 141q12 80 23 109q31 88 154 198q72 66 171 109t212.5 42t189.5 -65q41 -45 84 -16q76 55 165 87 t185 26.5t166 -62.5q31 -27 31 -49.5t-40 -60t-63 -37.5q-20 0 -49 28q-49 43 -90 58.5t-102 15.5q-84 0 -158 -62.5t-94 -148.5q-14 -70 -15 -248q0 -49 25 -51q90 -12 377 0q82 2 178 35q16 6 26.5 -12.5t10.5 -36.5v-664q0 -78 20.5 -97.5t83.5 -19.5q16 4 29 0 q12 -2 11 -34.5t-11 -36.5q-193 6 -438 0q-14 0 -15 33q0 16 2.5 23t9.5 12.5t21 2.5q88 0 106.5 30t18.5 177v316q0 154 -125 155q-199 6 -287 2q-14 -2 -26 -15t-14 -23l-3 -435q0 -131 18.5 -169t108.5 -38h41q23 0 28 -8t5 -30q0 -33 -12 -33q-246 4 -492 -2 q-16 0 -16 30q0 33 16 39h17q47 0 65.5 2t33.5 25t17.5 60.5t2.5 119.5v412q-12 51 -33 53q-72 4 -203 4t-176 -6q-29 -4 -33 -45v-508q2 -68 26.5 -89t98.5 -21q51 0 61 -3q12 -4 15.5 -23.5t-1.5 -34.5t-14 -15q-301 10 -518 0q-10 0 -16 15t-1 32.5zM389 891 q0 -41 27 -43q229 -10 389 0q16 2 23.5 14t8.5 25.5t1 36v28.5q6 154 55 242q10 23 -33 66q-82 74 -205 73q-84 0 -158.5 -61.5t-93.5 -147.5q-14 -59 -14 -233z" />
<glyph unicode="&#xfb04;" horiz-adv-x="1761" d="M48 4q-5 14 0 30.5t24 20.5q6 4 29.5 3t29.5 -1q59 2 76.5 28t17.5 103v500q0 33 -26 33h-97q-37 0 -43 14q-6 37 2 47q2 2 23 13q92 16 141 49q6 82 13 141q6 53 22 109q31 88 154 198q74 66 170 108t205.5 42t185.5 -64q37 -35 55 -18q111 96 254 96q23 0 66 -5t63 -5 q55 0 94 49q61 23 62 -14v-1303q0 -76 13 -96.5t71 -22.5q2 0 14 1t18.5 0t14.5 -5t10 -12q8 -19 0 -39q-4 -14 -18 -12h-9h-428q-12 0 -16 20.5t2 32.5q4 10 21.5 12t41 1t29.5 -1q49 6 60.5 42t11.5 171l2 418q0 51 -37 51q-262 10 -362 0q-10 -2 -25 -49v-512 q0 -76 24.5 -99.5t100.5 -23.5q10 4 22 0q16 -2 16.5 -32.5t-16.5 -30.5q-129 4 -438 0q-10 0 -15 18.5t-1 30.5q4 10 13 14t18.5 2t17.5 0q53 4 72 29q14 18 17 47t3 137v398q0 39 -7 49t-34 12h-102.5h-138h-105.5q-16 0 -23.5 -7t-11.5 -32v-422q0 -109 3 -135.5 t16 -44.5q12 -20 32.5 -26.5t75.5 -6.5q29 6 60 0q12 -4 15 -20.5t-2 -30.5t-13 -14q-264 10 -519 0q-10 0 -15 14zM395 883q0 -37 23 -39q111 -4 348 0q29 0 40 6t13 33q11 163 68 286q16 37 -6 62q-6 8 -27 29q-78 74 -192 73q-84 0 -159 -61.5t-93 -147.5 q-14 -59 -15 -241zM983 895q0 -23 10.5 -31t40.5 -10h326q45 0 45 41v389q-115 78 -207 78q-76 0 -133 -78q-80 -109 -82 -389z" />
</font>
</defs>
</svg>
